<?xml version="1.0" standalone="no"?>
<!DOCTYPE svg PUBLIC "-//W3C//DTD SVG 1.1//EN" "http://www.w3.org/Graphics/SVG/1.1/DTD/svg11.dtd" >
<svg xmlns="http://www.w3.org/2000/svg" xmlns:xlink="http://www.w3.org/1999/xlink" version="1.1">
<metadata>
Created by FontForge 20200314 at Mon Oct  5 09:52:28 2020
 By Robert Madole
Copyright (c) Font Awesome
</metadata>
<!-- Font Awesome Pro 5.15.1 by @fontawesome - https://fontawesome.com License - https://fontawesome.com/license (Commercial License) --><defs>
<font id="FontAwesome5Duotone-Solid" horiz-adv-x="512" >
  <font-face 
    font-family="Font Awesome 5 Duotone Solid"
    font-weight="900"
    font-stretch="normal"
    units-per-em="512"
    panose-1="2 0 5 3 0 0 0 0 0 0"
    ascent="448"
    descent="-64"
    bbox="-0.00488281 -64.0088 640.009 448.009"
    underline-thickness="25"
    underline-position="-50"
    unicode-range="U+0020-10F8FF"
  />
    <missing-glyph />
    <glyph glyph-name="redo-primary" unicode="&#xf01e;" 
d="M512 436v-200c0 -6.62305 -5.37695 -12 -12 -12h-200c-6.62305 0 -12 5.37695 -12 12v47.3203c0 6.62305 5.37695 12 12 12h0.580078l147.54 -7.06055l-7.44043 147.19c-0.00878906 0.189453 -0.0126953 0.380859 -0.0126953 0.573242
c0 6.41992 5.06055 11.6611 11.4033 11.9766h47.9297c6.62305 0 12 -5.37695 12 -12z" />
    <glyph glyph-name="sync-primary" unicode="&#xf021;" 
d="M12.2998 238.18c21.6299 114.9 122.51 201.82 243.7 201.82h0.257812c75.5947 0 143.247 -33.8369 188.643 -87.3398l-4 82.7695c-0.00976562 0.192383 -0.0136719 0.384766 -0.0136719 0.579102c0 6.62305 5.37695 12 12 12
c0.0107422 0 0.0214844 -0.00878906 0.0332031 -0.00878906h47.4102c6.62305 0 12 -5.37695 12 -12v-200.33c0 -6.62305 -5.37695 -12 -12 -12h-200.33c-6.62305 0 -12 5.37695 -12 12v47.4102v0.0136719c0 6.62305 5.37695 12 12 12
c0.194336 0 0.37793 -0.00488281 0.570312 -0.0136719l101.529 -4.87988c-31.626 47.0146 -85.3242 77.9707 -146.194 77.9707c-82.9102 0 -152.396 -57.6953 -171.045 -134.911c-1.24219 -5.29688 -5.99805 -9.25391 -11.6699 -9.25977h-49.0908
c-6.62207 0 -11.999 5.37695 -11.999 12c0 0.748047 0.0683594 1.46973 0.199219 2.17969z" />
    <glyph glyph-name="volume-off-primary" unicode="&#xf026;" horiz-adv-x="256" 
 />
    <glyph glyph-name="magnet-primary" unicode="&#xf076;" 
d="M512 255.8c-0.200195 -20.2002 -0.599609 -40.3994 0 -53.2002c0 -150.699 -134.5 -246.699 -255.1 -246.699c-120.601 0 -256.801 96 -256.801 246.6c0.600586 13 0.100586 31.9004 0 53.2998v0.102539c0 6.62207 5.37695 11.998 12 11.998h152
c6.62305 0 12 -5.37695 12 -12v-52c0 -127.9 160 -128.101 160 0v52c0 6.62305 5.37695 12 12 12h151.9c6.62305 0 12 -5.37695 12 -12v-0.100586z" />
    <glyph glyph-name="eraser-primary" unicode="&#xf12d;" 
d="M377.94 54.0596l-182.631 182.631l-45.25 45.25l120 120c8.68848 8.6875 20.7021 14.0645 33.9473 14.0645s25.2451 -5.37695 33.9336 -14.0645l160 -160c8.6875 -8.68848 14.0645 -20.7021 14.0645 -33.9473s-5.37695 -25.2451 -14.0645 -33.9336z" />
    <glyph glyph-name="expand-arrows-alt-primary" unicode="&#xf31e;" horiz-adv-x="448" 
d="M370.9 299.2l-254.101 -254.101l36.2002 -36.0996c15.0996 -15.0996 4.40039 -41 -17 -41h-112h-0.0615234c-13.2129 0 -23.9395 10.7275 -23.9395 23.9395c0 0.0205078 0.000976562 0.0400391 0.000976562 0.0605469v112c0 21.4004 25.9004 32.0996 41 17
l36.2002 -36.2002l254.1 254.101l-36.2002 36.0996c-15.0996 15.0996 -4.39941 41 17 41h112h0.0615234c13.2129 0 23.9404 -10.7275 23.9404 -23.9395c0 -0.0205078 -0.00195312 -0.0400391 -0.00195312 -0.0605469v-112c0 -21.4004 -25.8994 -32.0996 -41 -17z" />
    <glyph glyph-name="arrow-alt-right-primary" unicode="&#xf356;" horiz-adv-x="448" 
d="M265 376.89l176 -167.89c4.34277 -4.35645 7.0293 -10.3652 7.0293 -16.9961c0 -6.63184 -2.68652 -12.6475 -7.0293 -17.0039l-176 -167.94c-15.0996 -15.1094 -41 -4.39941 -41 17v335.83c0 21.4199 25.75 32.1104 41 17z" />
    <glyph glyph-name="volleyball-ball-primary" unicode="&#xf45f;" 
d="M194.49 339c-83.7598 -39.4297 -148.63 -108.05 -182.11 -190.84c-2.55566 14.2637 -4.14746 28.5752 -4.14746 43.5693c0 93.832 52.2451 175.558 129.208 217.65c22.6895 -20.2861 41.8018 -43.8145 57.0498 -70.3799zM231.39 204.6
c-70.0771 -43.0537 -122.67 -111.133 -145.989 -191.869c-24.125 22.9619 -43.4551 50.5449 -56.8203 81.5693c22.9902 94 89.5596 173.72 180.11 216c13.8145 -32.4951 21.9111 -68.375 22.6992 -105.7zM382.09 173.9c-36.7002 4.45312 -71.8545 16.043 -102.899 33.0996
c-2.29688 86.1982 -37.3203 164.525 -93.1006 222.53c22.165 6.53223 45.5918 10.0801 69.8613 10.0801h0.138672c9.89551 -0.00976562 19.4033 -0.583984 29 -1.70996c69.8506 -66.9199 105.58 -164.41 97 -264zM339.53 425.07
c95.5898 -34.2607 163.97 -125.65 163.979 -233.03c-0.00683594 -2.09277 -0.0332031 -4.17969 -0.0800781 -6.25977c-27.9619 -9.12012 -57.8301 -14.1211 -88.8203 -14.1211c-0.203125 0 -0.40625 0 -0.609375 0.000976562
c7.87988 92.3398 -19.2695 183.04 -74.4697 253.41zM159.09 64.6602c53.4502 -37.2002 143.51 -77.9697 256 -62.2197c-43.0117 -36.0889 -98.8691 -57.7441 -159.354 -57.7441c-47.1016 0 -91.1484 13.1855 -128.646 36.0635c6.37012 29.6904 16.8506 57.9902 32 83.9004z
M257.39 164.36c49.7002 -26.8008 104 -40.8008 158.61 -40.9004c27.8096 0.192383 54.7285 3.7998 80.5498 10.3701c-7.95215 -32.9609 -22.6377 -63.6797 -42.3594 -90c-92.8408 -27.0703 -195.131 -9.28027 -277 47.9297c21.9404 29.168 48.8857 53.5928 80.1992 72.6006z
" />
    <glyph glyph-name="plane-departure-primary" unicode="&#xf5b0;" horiz-adv-x="640" 
d="M636.11 388.92c7.22949 -14.5596 5.23926 -35.1699 -13.0703 -63.6504c-16.3096 -25.3691 -40.2803 -44.7393 -67 -58.3096l-291 -147.65c-8.88867 -4.50977 -19.0039 -7.09863 -29.6396 -7.11914l-130.521 -0.19043
c-9.62793 0.000976562 -18.2959 4.12207 -24.3301 10.71l-76.21 83c-2.70508 3.1875 -4.33691 7.31348 -4.33691 11.8174c0 7.08203 4.01172 13.2275 9.90723 16.2627l40.0898 20.3496c2.41016 1.21973 5.13379 1.90625 8.01758 1.90625
c2.88281 0 5.64258 -0.686523 8.05273 -1.90625l72.3496 -36.4697l103.21 52.3799l-156.18 98.1201c-2.94629 3.24414 -4.74316 7.55176 -4.74316 12.2754c0 7.08105 4.0166 13.2227 9.91309 16.2549l65.75 33.3701c2.41504 1.22559 5.14648 1.91602 8.03809 1.91602
c3.67383 0 7.125 -1.11523 9.96191 -3.02637l218.7 -82.0596l98.5098 50c26.7402 13.5498 56.4199 21.4092 86.2803 19.4697c33.5098 -2.17969 51.04 -12.8799 58.25 -27.4502z" />
    <glyph glyph-name="wave-square-primary" unicode="&#xf83e;" horiz-adv-x="640" 
 />
    <glyph glyph-name="redo-secondary" unicode="&#x10f01e;" 
d="M422.36 25.3096c2.18066 -2.17285 3.53125 -5.17871 3.53125 -8.49805s-1.35059 -6.32812 -3.53125 -8.50195l-0.490234 -0.459961c-43.8398 -39.6562 -101.952 -63.8213 -165.665 -63.8213c-0.147461 0 -0.387695 -0.0283203 -0.535156 -0.0283203
c-136.9 0 -247.9 110.93 -248 247.81c-0.0996094 136.66 111.33 248.19 248 248.19h0.243164c75.5967 0 143.252 -33.832 188.657 -87.3301l3.51953 -64.4297l-46.5 2.21973c-31.6357 46.8545 -85.2295 77.6885 -145.967 77.6885c-97.1377 0 -176 -78.8633 -176 -176
c0 -97.1377 78.8623 -176 176 -176c44.5098 0 85.3701 16.4141 116.377 43.7012c2.11035 1.84668 4.87305 2.9668 7.89551 2.9668c3.30762 0 6.3125 -1.33789 8.48438 -3.50684z" />
    <glyph glyph-name="sync-secondary" unicode="&#x10f021;" 
d="M0 -52v200.33c0 6.62305 5.37695 12 12 12h200.33c6.62305 0 12 -5.37695 12 -12v-47.4102v-0.0136719c0 -6.62305 -5.37695 -12 -12 -12c-0.194336 0 -0.37793 0.00488281 -0.570312 0.0136719l-101.87 4.87988c31.626 -47.0205 85.3271 -77.9814 146.202 -77.9814
c82.9141 0 152.403 57.7002 171.048 134.922c1.24219 5.29688 5.99805 9.25391 11.6699 9.25977h49.0908c6.62207 0 11.999 -5.37695 11.999 -12c0 -0.748047 -0.0683594 -1.46973 -0.199219 -2.17969c-21.6299 -114.9 -122.51 -201.82 -243.7 -201.82h-0.248047
c-75.5186 0 -143.111 33.7646 -188.512 87.1699l4.12988 -82.5703c0.00976562 -0.201172 0.0146484 -0.404297 0.0146484 -0.608398c0 -6.62305 -5.37695 -12 -12 -12c-0.00488281 0 -0.00976562 0.00878906 -0.0146484 0.00878906h-47.3701c-6.62305 0 -12 5.37695 -12 12z
" />
    <glyph glyph-name="volume-off-secondary" unicode="&#x10f026;" horiz-adv-x="256" 
d="M0 120v144c0 13.2461 10.7539 24 24 24h102.06l89 89c15 15 41 4.49023 41 -17v-336c0 -21.4404 -25.9395 -32 -41 -17l-89 88.9502h-102.06c-13.2461 0 -24 10.7539 -24 24v0.0498047z" />
    <glyph glyph-name="magnet-secondary" unicode="&#x10f076;" 
d="M476.1 428c19.8691 0 36 -16.1309 36 -36v-80.0996c0 -0.00390625 0.00292969 -0.0078125 0.00292969 -0.0107422c0 -6.5625 -5.32812 -11.8906 -11.8906 -11.8906c-0.0371094 0 -0.0742188 0.000976562 -0.112305 0.000976562h-152c-6.62305 0 -12 5.37695 -12 12v80
c0 19.8691 16.1318 36 36 36h104zM140 427.9c19.8691 0 36 -16.1318 36 -36v-80c0 -0.0380859 0.000976562 -0.0732422 0.000976562 -0.110352c0 -6.5625 -5.32812 -11.8896 -11.8906 -11.8896h-0.0107422h-152.1c-6.62305 0 -12 5.37695 -12 12v80
c0 19.8682 16.1309 36 36 36h104z" />
    <glyph glyph-name="eraser-secondary" unicode="&#x10f12d;" 
d="M512 20v-40c0 -6.62305 -5.37695 -12 -12 -12h-356c-13.2461 0.000976562 -25.252 5.37109 -33.9404 14.0596l-96 96c-8.6875 8.68848 -14.0645 20.6885 -14.0645 33.9336s5.37695 25.2588 14.0645 33.9473l136 136l227.881 -227.881l-22.0605 -22.0596h144.12
c6.62305 0 12 -5.37695 12 -12z" />
    <glyph glyph-name="expand-arrows-alt-secondary" unicode="&#x10f31e;" horiz-adv-x="448" 
d="M0.0498047 280v112v0.0615234c0 13.2129 10.7275 23.9395 23.9404 23.9395c0.0205078 0 0.0390625 -0.000976562 0.0595703 -0.000976562h112c21.4004 0 32.1006 -25.9004 17 -41l-36.2002 -36.2002l107.2 -107.2l-39.6494 -39.5996l-107.25 107.25l-36.1006 -36.25
c-15.0498 -15.0498 -41 -4.34961 -41 17zM407.05 120.9c15.1006 15.0498 41 4.44922 41 -16.9502v-112c0 -0.0205078 0.000976562 -0.0400391 0.000976562 -0.0605469c0 -13.2129 -10.7266 -23.9395 -23.9395 -23.9395h-0.0615234h-112c-21.3994 0 -32.0996 25.8994 -17 41
l36.2002 36.2002l-107.2 107.199l39.6504 39.6504l107.3 -107.25z" />
    <glyph glyph-name="arrow-alt-right-secondary" unicode="&#x10f356;" horiz-adv-x="448" 
d="M24 256h200v-128.14h-200c-13.2461 0 -24 10.7539 -24 24v80.1396c0 13.2461 10.7539 24 24 24z" />
    <glyph glyph-name="volleyball-ball-secondary" unicode="&#x10f45f;" 
d="M454.23 43.8301c-11.5049 -15.3633 -24.4814 -29.0713 -39.1709 -41.3896c-112.46 -15.75 -202.52 25 -256 62.2197c-15.1494 -25.9102 -25.6299 -54.21 -32 -83.9102c-15.0811 9.23438 -28.9072 19.8691 -41.6494 32c23.3223 80.7383 75.9189 148.777 146 191.83
c-0.788086 37.3242 -8.88574 73.2041 -22.7002 105.7c-90.5498 -42.2803 -157.12 -122 -180.11 -216c-7.29395 16.9414 -12.8584 35.2617 -16.1992 53.9102c33.46 82.7598 98.3301 151.38 182.09 190.81c-15.248 26.5654 -34.3604 50.0938 -57.0498 70.3799
c15.1943 8.28613 31.6445 15.1289 48.5596 20.0898c55.7998 -57.9795 90.8525 -136.287 93.1904 -222.47c31.042 -17.0703 66.1973 -28.7139 102.899 -33.1797c8.58008 99.5898 -27.1494 197.09 -97.0596 264c18.7783 -2.19141 37.252 -6.58887 54.5 -12.7705
c55.2002 -70.3496 82.3496 -161.05 74.4697 -253.39c0.203125 -0.000976562 0.40625 -0.000976562 0.609375 -0.000976562c30.9902 0 60.8584 5.00098 88.8203 14.1211c-0.439453 -17.8721 -2.79199 -35.2559 -6.83008 -52
c-25.8408 -6.55762 -52.7715 -10.1484 -80.5996 -10.3203c-54.5996 0.0996094 -108.9 14.0996 -158.6 40.9004c-31.3145 -19.0078 -58.2588 -43.4326 -80.2002 -72.6006c81.8594 -57.21 184.149 -75.04 277.03 -47.9297z" />
    <glyph glyph-name="plane-departure-secondary" unicode="&#x10f5b0;" horiz-adv-x="640" 
d="M640 0v-32c0 -8.83105 -7.16895 -16 -16 -16h-608c-8.83105 0 -16 7.16895 -16 16v32c0 8.83105 7.16895 16 16 16h608c8.83105 0 16 -7.16895 16 -16z" />
    <glyph glyph-name="wave-square-secondary" unicode="&#x10f83e;" horiz-adv-x="640" 
d="M476 -32h-152c-19.8691 0 -36 16.1309 -36 36v348h-96v-156c0 -19.8691 -16.1309 -36 -36 -36h-140c-8.83105 0 -16 7.16895 -16 16v32c0 8.83105 7.16895 16 16 16h112v156c0 19.8691 16.1309 36 36 36h152c19.8691 0 36 -16.1309 36 -36v-348h96v156
c0 19.8691 16.1309 36 36 36h140c8.83105 0 16 -7.16895 16 -16v-32c0 -8.83105 -7.16895 -16 -16 -16h-112v-156c0 -19.8691 -16.1309 -36 -36 -36z" />
  </font>
</defs>
</svg>
