<?xml version="1.0" standalone="no"?>
<!DOCTYPE svg PUBLIC "-//W3C//DTD SVG 1.1//EN" "http://www.w3.org/Graphics/SVG/1.1/DTD/svg11.dtd" >
<svg xmlns="http://www.w3.org/2000/svg" xmlns:xlink="http://www.w3.org/1999/xlink" version="1.1">
<metadata>
Created by FontForge 20200314 at Mon Oct  5 09:52:15 2020
 By Robert Madole
Copyright (c) Font Awesome
</metadata>
<!-- Font Awesome Pro 5.15.1 by @fontawesome - https://fontawesome.com License - https://fontawesome.com/license (Commercial License) --><defs>
<font id="FontAwesome5Pro-Regular" horiz-adv-x="640" >
  <font-face 
    font-family="Font Awesome 5 Pro Regular"
    font-weight="400"
    font-stretch="normal"
    units-per-em="512"
    panose-1="2 0 5 3 0 0 0 0 0 0"
    ascent="448"
    descent="-64"
    bbox="-0.00693345 -64.0136 640.03 448.011"
    underline-thickness="25"
    underline-position="-50"
    unicode-range="U+0020-F8FF"
  />
    <missing-glyph />
    <glyph glyph-name="road" unicode="&#xf018;" horiz-adv-x="576" 
d="M267.73 256c-7.12012 0 -12.6807 6.16992 -11.9404 13.2598l4.59961 43.5801c0.430664 4.07031 3.87012 7.16016 7.95996 7.16016h39.29c0.00195312 0 0.00390625 -0.0078125 0.00488281 -0.0078125c4.12891 0 7.53125 -3.13477 7.95508 -7.15234l4.60059 -43.5801
c0.75 -7.08984 -4.7998 -13.2598 -11.9307 -13.2598h-40.5391zM260.36 144c-9.5 0 -16.9102 8.23047 -15.9102 17.6797l5.06934 48c0.860352 8.14062 7.7207 14.3203 15.9102 14.3203h45.1504c8.18945 0 15.0498 -6.17969 15.9102 -14.3203l5.06934 -48
c1 -9.44922 -6.40918 -17.6797 -15.9092 -17.6797h-55.29zM273.42 352c-4.75 0 -8.4502 4.12012 -7.95996 8.83984l1.69043 16c0.429688 4.07031 3.86914 7.16016 7.95996 7.16016h25.7793c0.00195312 0 0.00390625 -0.0078125 0.00488281 -0.0078125
c4.12891 0 7.53125 -3.13477 7.95508 -7.15234l1.69043 -16c0.490234 -4.71973 -3.20996 -8.83984 -7.95996 -8.83984h-29.1602zM322.4 112c8.18945 0 15.0498 -6.17969 15.8994 -14.3203l8.4502 -80c1 -9.44922 -6.41016 -17.6797 -15.9102 -17.6797h-85.6895
c-9.5 0 -16.9102 8.23047 -15.9102 17.6797l8.4502 80c0.859375 8.14062 7.71973 14.3203 15.9092 14.3203h68.8008zM173.35 384c5.33008 0 9.16992 -5.12012 7.68066 -10.2402l-105.65 -362.24c-1.99023 -6.8291 -8.25 -11.5195 -15.3604 -11.5195h-44
c-11.4199 0 -19.1592 11.6201 -14.7695 22.1504l148.72 356.93c1.20312 2.89062 4.05273 4.91992 7.37695 4.91992h0.00292969h16zM574.75 22.1504c4.38965 -10.5303 -3.34961 -22.1504 -14.7598 -22.1504h-44l-0.000976562 0.00195312
c-7.27344 0 -13.4209 4.86621 -15.3594 11.5176l-105.649 362.24c-1.49023 5.12012 2.34961 10.2402 7.67969 10.2402h16c3.32422 -0.000976562 6.17383 -2.03027 7.37988 -4.91992z" />
    <glyph glyph-name="tachometer" unicode="&#xf0e4;" horiz-adv-x="576" 
d="M288 416c159.06 0 288 -128.94 288 -288c0 -52.7998 -14.25 -102.26 -39.0596 -144.8c-5.61035 -9.62012 -16.3008 -15.2002 -27.4404 -15.2002h-443c-11.1396 0 -21.8301 5.58008 -27.4404 15.2002c-24.8096 42.54 -39.0596 92 -39.0596 144.8
c0 159.06 128.94 288 288 288zM500.27 16c18.1709 34.3701 27.7305 72.8799 27.7305 112c0 132.34 -107.66 240 -240 240s-240 -107.66 -240 -240c0 -39.1201 9.55957 -77.6299 27.7305 -112h424.539zM359.59 310.77c12.5703 -4.18945 19.3799 -17.7891 15.21 -30.3594
l-45.3398 -136.01c13.6904 -11.7402 22.5498 -28.9502 22.5498 -48.4004c0 -11.7197 -3.37988 -22.5498 -8.87988 -32h-110.25c-5.5 9.4502 -8.87988 20.2803 -8.87988 32c0 33.9404 26.4902 61.4199 59.8701 63.5898l45.3398 136.01
c4.21973 12.5508 17.6602 19.4004 30.3799 15.1699z" />
    <glyph glyph-name="laptop" unicode="&#xf109;" 
d="M624 96c8.7998 0 16 -7.2002 16 -16v-48c0 -52.7998 -43.2002 -96 -96 -96h-448c-52.7998 0 -96 43.2002 -96 96v48c0 8.7998 7.2002 16 16 16h48v288c0 35.2002 28.7998 64 64 64h384c35.2002 0 64 -28.7998 64 -64v-288h48zM112 384v-288h416v288
c0 8.66992 -7.33008 16 -16 16h-384c-8.66992 0 -16 -7.33008 -16 -16zM592 32v16h-180.9c-5.58008 -9.38965 -15.3799 -16 -27.0996 -16h-128c-11.7197 0 -21.5303 6.61035 -27.0996 16h-180.9v-16c0 -26.4697 21.5303 -48 48 -48h448c26.4697 0 48 21.5303 48 48z" />
    <glyph glyph-name="car" unicode="&#xf1b9;" horiz-adv-x="512" 
d="M499.99 255.99c7.80957 0 13.54 -7.33008 11.6494 -14.9102l-6 -24c-1.33008 -5.33984 -6.12988 -9.08984 -11.6396 -9.08984h-11.3096c8.26953 -14.1504 13.3096 -30.4004 13.3096 -47.9902v-136c0 -13.25 -10.75 -24 -24 -24h-16c-13.25 0 -24 10.75 -24 24v24h-352
v-24c0 -13.25 -10.75 -24 -24 -24h-16c-13.25 0 -24 10.75 -24 24v136.01c0 17.5801 5.04004 33.8301 13.3203 47.9902h-11.3105c-5.61523 0.00488281 -10.333 3.87598 -11.6396 9.08984l-6 24c-1.90039 7.57031 3.83008 14.9102 11.6396 14.9102h52.2002l31.3604 77.8799
c12.1895 30.2803 41.5693 50.1201 74.21 50.1201h172.439c32.6406 0 62.0205 -19.8398 74.2002 -50.1299l31.3604 -77.8799h52.21zM140.1 315.95l-24.1299 -59.9404h280.061l-24.1299 59.9404c-4.90039 12.1797 -16.5508 20.0498 -29.6807 20.0498h-172.439
c-13.1299 0 -24.7803 -7.87012 -29.6807 -20.0498zM448 112v48c0 26.4697 -21.5303 48 -48 48h-288c-26.4697 0 -48 -21.5303 -48 -48v-48c0 -8.82031 7.17969 -16 16 -16h352c8.82031 0 16 7.17969 16 16zM128 184.01c19.2002 0 48 -28.7197 48 -47.8594
c0 -19.1504 -28.7998 -15.96 -48 -15.96s-32 12.7598 -32 31.9092c0 19.1504 12.7998 31.9102 32 31.9102zM384 184.01c19.2002 0 32 -12.7695 32 -31.9102c0 -19.1494 -12.7998 -31.9092 -32 -31.9092s-48 -3.19043 -48 15.96c0 19.1396 28.7998 47.8594 48 47.8594z" />
    <glyph glyph-name="binoculars" unicode="&#xf1e5;" horiz-adv-x="512" 
d="M511.67 60l0.330078 -44c0 -26.5098 -21.4902 -48 -48 -48h-128c-26.5098 0 -48 21.4902 -48 48v144h-64v-144c0 -26.5098 -21.4902 -48 -48 -48h-128c-26.5098 0 -48 21.4902 -48 48l0.330078 44c3.45996 129.77 61.0596 150.16 63.5801 243.98
c0.479492 17.6396 14.2803 32.0195 31.9297 32.0195h0.160156v48c0 17.6699 14.3301 32 32 32h80c17.6699 0 32 -14.3301 32 -32v-48h32v48c0 17.6699 14.3301 32 32 32h80c17.6699 0 32 -14.3301 32 -32v-48h0.160156c17.6494 0 31.4502 -14.3701 31.9297 -32.0195
c2.52051 -93.8203 60.1201 -114.211 63.5801 -243.98zM320 368v-32h48v32h-48zM144 368v-32h48v32h-48zM176 16v272h-64.9004c-3.72949 -45.0098 -18.3496 -76.5703 -31.3994 -104.74c-15.3203 -33.0693 -29.7803 -64.2998 -31.3906 -124.54l-0.30957 -43.0801zM224 208h64
v80h-64v-80zM336 16h128l-0.330078 43.6504c-1.58984 59.3096 -16.0498 90.54 -31.3701 123.609c-13.0498 28.1602 -27.6699 59.7305 -31.3994 104.74h-64.9004v-272z" />
    <glyph glyph-name="bell-slash" unicode="&#xf1f6;" 
d="M633.99 -23.0195c6.91016 -5.52051 8.01953 -15.5908 2.5 -22.4902l-10 -12.4902c-5.53027 -6.88965 -15.5898 -8.00977 -22.4902 -2.49023l-598 467.51c-6.90039 5.52051 -8.01953 15.5908 -2.49023 22.4902l10 12.4902
c5.52051 6.90039 15.5898 8.00977 22.4902 2.49023zM163.53 80h182.84l61.3994 -48h-279.659c-19.1201 0 -31.9902 15.5996 -32.1006 32c-0.0498047 7.5498 2.61035 15.2598 8.61035 21.71c18.3701 19.7402 51.5703 49.6904 54.8398 140.42l45.4697 -35.5498
c-6.91992 -54.7803 -24.6895 -88.5498 -41.3994 -110.58zM320 352c-23.3496 0 -45 -7.17969 -62.9404 -19.4004l-38.1699 29.8408c19.6807 15.7793 43.1104 27.3096 69.1299 32.7197v20.8398c0 17.6699 14.3203 32 31.9805 32s31.9805 -14.3301 31.9805 -32v-20.8398
c73.46 -15.2598 127.939 -77.46 127.939 -155.16c0 -41.3604 6.03027 -70.7197 14.3398 -92.8496l-59.5293 46.54c-1.63086 13.96 -2.77051 28.8896 -2.79004 45.7295c0 0.200195 0.0595703 0.379883 0.0595703 0.580078c0 61.8604 -50.1396 112 -112 112zM320 -64
c-35.3203 0 -63.9697 28.6504 -63.9697 64h127.939c0 -35.3496 -28.6494 -64 -63.9697 -64z" />
    <glyph glyph-name="street-view" unicode="&#xf21d;" horiz-adv-x="512" 
d="M168 109.41c-18.9102 9 -32 28.29 -32 50.5898v72c0 28.7803 17.0898 53.4805 41.5498 65c-10.9795 15.5996 -17.5498 34.5098 -17.5498 55c0 52.9404 43.0596 96 96 96s96 -43.0596 96 -96c0 -20.4902 -6.57031 -39.4004 -17.54 -55
c24.4502 -11.5195 41.54 -36.2197 41.54 -65v-72c0 -22.29 -13.0898 -41.5898 -32 -50.5898v-45.4102c0 -30.8799 -25.1201 -56 -56 -56h-64c-30.8799 0 -56 25.1201 -56 56v45.4102zM256 400c-26.5098 0 -48 -21.4902 -48 -48s21.4902 -48 48 -48s48 21.4902 48 48
s-21.4902 48 -48 48zM184 232v-72c0 -4.41016 3.58984 -8 8 -8h24v-88c0 -4.41016 3.58984 -8 8 -8h64c4.41016 0 8 3.58984 8 8v88h24c4.41016 0 8 3.58984 8 8v72c0 13.2305 -10.7803 24 -24 24h-96c-13.2197 0 -24 -10.7695 -24 -24zM393.61 112.86
c71.1094 -17.0508 118.39 -46.8604 118.39 -80.8604c0 -53.0195 -114.62 -96 -256 -96s-256 42.9805 -256 96c0 34 47.2803 63.8096 118.39 80.8701c4.90039 -7.66016 10.5508 -14.8301 17.6104 -20.6904v-14.4893c-53.1797 -10.1504 -88 -26.8105 -88 -45.6904
c0 -30.9297 93.1201 -56.0098 208 -56.0098s208 25.0693 208 56c0 18.8799 -34.8203 35.5498 -88 45.6895v14.4902c7.05957 5.86035 12.71 13.04 17.6104 20.6904z" />
    <glyph glyph-name="map-pin" unicode="&#xf276;" horiz-adv-x="288" 
d="M144 448c79.5303 0 144 -64.4697 144 -144c0 -71.3096 -51.96 -130.1 -120 -141.58v-197.64l-16.5098 -24.7705c-3.57031 -5.33984 -11.4199 -5.33984 -14.9805 0l-16.5098 24.7705v197.64c-68.04 11.4805 -120 70.2705 -120 141.58c0 79.5303 64.4697 144 144 144z
M144 208c52.9404 0 96 43.0703 96 96c0 52.9404 -43.0596 96 -96 96s-96 -43.0596 -96 -96c0 -52.9297 43.0596 -96 96 -96zM144 368c8.83984 0 16 -7.16016 16 -16s-7.16016 -16 -16 -16c-17.6602 0 -32 -14.3604 -32 -32c0 -8.83984 -7.16016 -16 -16 -16
s-16 7.16016 -16 16c0 35.2998 28.7197 64 64 64z" />
    <glyph glyph-name="map-signs" unicode="&#xf277;" horiz-adv-x="512" 
d="M441.37 256h-161.37v-32h176c13.25 0 24 -13.4297 24 -30v-100c0 -16.5703 -10.75 -30 -24 -30h-176v-112c0 -8.83984 -7.16016 -16 -16 -16h-16c-8.83984 0 -16 7.16016 -16 16v112h-161.37c-8.49023 0 -16.6299 4.21973 -22.6299 11.7197l-43.3096 54.1299
c-6.25 7.82031 -6.25 20.4805 0 28.29l43.3096 54.1504c6 7.5 14.1396 11.71 22.6299 11.71h161.37v32h-176c-13.25 0 -24 13.4297 -24 30v100c0 16.5703 10.75 30 24 30h176v16c0 8.83984 7.16016 16 16 16h16c8.83984 0 16 -7.16016 16 -16v-16h161.37
c8.49023 0 16.6299 -4.20996 22.6299 -11.71l43.3096 -54.1396c6.25 -7.82031 6.25 -20.4805 0 -28.29l-43.3096 -54.1406c-6.00977 -7.50977 -14.1396 -11.7197 -22.6299 -11.7197zM432 112v64h-351.56l-25.6006 -32l25.6006 -32h351.56zM80 368v-64h351.56l25.6006 32
l-25.6006 32h-351.56z" />
    <glyph glyph-name="tachometer-alt" unicode="&#xf3fd;" horiz-adv-x="576" 
d="M128 160c17.6699 0 32 -14.3301 32 -32s-14.3301 -32 -32 -32s-32 14.3301 -32 32s14.3301 32 32 32zM282.65 257.08c-15.0205 2.62988 -26.6504 15.1396 -26.6504 30.9199c0 17.6699 14.3301 32 32 32c5.87012 0 11.0801 -2.01953 15.8096 -4.78027
c-1.73926 -3.08008 -3.75977 -5.97949 -4.91992 -9.42969zM176 272c17.6699 0 32 -14.3301 32 -32s-14.3301 -32 -32 -32s-32 14.3301 -32 32s14.3301 32 32 32zM288 416c159.06 0 288 -128.94 288 -288c0 -52.7998 -14.25 -102.26 -39.0596 -144.8
c-5.61035 -9.62012 -16.3008 -15.2002 -27.4404 -15.2002h-443c-11.1396 0 -21.8301 5.58008 -27.4404 15.2002c-24.8096 42.54 -39.0596 92 -39.0596 144.8c0 159.06 128.94 288 288 288zM500.27 16c18.1709 34.3701 27.7305 72.8799 27.7305 112
c0 132.34 -107.66 240 -240 240s-240 -107.66 -240 -240c0 -39.1201 9.55957 -77.6299 27.7305 -112h424.539zM416 128c0 17.6699 14.3301 32 32 32s32 -14.3301 32 -32s-14.3301 -32 -32 -32s-32 14.3301 -32 32zM359.59 310.77
c12.5703 -4.18945 19.3799 -17.7891 15.21 -30.3594l-45.3398 -136.01c13.6904 -11.7402 22.5498 -28.9502 22.5498 -48.4004c0 -11.7197 -3.37988 -22.5498 -8.87988 -32h-110.25c-5.5 9.4502 -8.87988 20.2803 -8.87988 32c0 33.9404 26.4902 61.4199 59.8701 63.5898
l45.3398 136.01c4.21973 12.5508 17.6602 19.4004 30.3799 15.1699zM432 240c0 -17.6699 -14.3301 -32 -32 -32.0098c-5.25 0 -9.99023 1.55957 -14.3604 3.7998l19.5 58.4902c0.0703125 0.219727 0.0703125 0.439453 0.140625 0.649414
c15.0596 -2.59961 26.7197 -15.1299 26.7197 -30.9297z" />
    <glyph glyph-name="route" unicode="&#xf4d7;" horiz-adv-x="512" 
d="M424 112c48.5 0 88 -39.5 88 -88s-39.5 -88 -88 -88h-328s-96 107 -96 160s43 96 96 96s96 -43 96 -96c0 -29.7998 -30.2998 -76.7002 -56.9004 -112h288.9c22.0996 0 40 17.9004 40 40s-17.9004 40 -40 40h-96c-48.5 0 -88 39.5 -88 88s39.5 88 88 88h48.9004
c-26.6006 35.2998 -56.9004 82.2002 -56.9004 112c0 53 43 96 96 96s96 -43 96 -96s-96 -160 -96 -160h-88c-22.0996 0 -40 -17.9004 -40 -40s17.9004 -40 40 -40h96zM368 352c0.5 -13.4004 20.7998 -48.0996 48 -84.2998c27.2002 36.2002 47.5 71 48 84.3994
c0 26.4004 -21.5 47.9004 -48 47.9004s-48 -21.5 -48 -48zM96 11.7002c27.2002 36.2002 47.5 71 48 84.3994c0 26.4004 -21.5 47.9004 -48 47.9004s-48 -21.5 -48 -48c0.5 -13.4004 20.7998 -48.0996 48 -84.2998zM96 112c8.7998 0 16 -7.2002 16 -16s-7.2002 -16 -16 -16
s-16 7.2002 -16 16s7.2002 16 16 16zM432 352c0 -8.7998 -7.2002 -16 -16 -16s-16 7.2002 -16 16s7.2002 16 16 16s16 -7.2002 16 -16z" />
    <glyph glyph-name="book-open" unicode="&#xf518;" 
d="M561.91 448c43.0596 0 78.0898 -34.3398 78.0898 -76.5498v-313.72c0 -40.7305 -32.4697 -74.3008 -73.9199 -76.4102c-36.7803 -1.91016 -128.811 -9.5 -187.73 -38.6904c-8.18945 -4.0498 -17.25 -6.29004 -26.3398 -6.58008v-0.0498047h-64.0195v0.0498047
c-9.08984 0.290039 -18.1504 2.53027 -26.3398 6.58008c-58.9199 29.1904 -150.95 36.7803 -187.73 38.6904c-41.4502 2.10938 -73.9199 35.6797 -73.9199 76.4102v313.72c0 42.21 35.0303 76.5498 78.0898 76.5498c12.4697 0 155.4 -6.49023 241.91 -56.8896
c86.5098 50.3994 229.44 56.8896 241.91 56.8896zM296 9.84961v214.15l-0.129883 106.07c-0.00976562 12.7793 -7.65039 24.1602 -19.2803 29.4395c-71.9795 32.6807 -178.6 40.3906 -198.53 40.4902c-16.5596 0 -30.0596 -12.8096 -30.0596 -28.5498v-313.72
c0 -15.1602 12.46 -27.6602 28.3604 -28.4609c44.3496 -2.30957 133.779 -9.83984 198.31 -34.3799c10.3701 -3.94922 21.3301 3.87012 21.3301 14.96zM592 57.7305v313.72c0 15.7402 -13.5 28.5498 -30.0596 28.5498
c-19.9209 -0.0996094 -126.54 -7.80957 -198.521 -40.4805c-11.6299 -5.28906 -19.2598 -16.6592 -19.2803 -29.4395l-0.139648 -106.08v-214.16c0 -11.0898 10.96 -18.8994 21.3301 -14.96c64.5303 24.5498 153.96 32.0801 198.31 34.3799
c15.9004 0.810547 28.3604 13.3105 28.3604 28.4707z" />
    <glyph glyph-name="air-freshener" unicode="&#xf5d0;" horiz-adv-x="384" 
d="M373.02 162.2c10.9004 -11.3105 13.9609 -27.1406 7.93066 -41.2998c-6.40039 -15.1104 -21.75 -24.8809 -39.0605 -24.8809h-125.89v-32.0195h120c8.83984 0 16 -7.16016 16 -16v-96c0 -8.83984 -7.16016 -16 -16 -16h-288c-8.83984 0 -16 7.16016 -16 16v96
c0 8.83984 7.16016 16 16 16h120v32.0098h-125.9c-17.3096 0 -32.6494 9.77051 -39.0596 24.8799c-6.03027 14.1807 -2.96973 30 7.94043 41.3008l49.3594 42.7998c-9.87988 3.5 -18.0703 10.8096 -22.4102 20.5293c-6.05957 13.5703 -3.62012 28.9502 6.37988 40.1201
l103.521 115.58c-2.45996 5.77051 -3.83008 12.1104 -3.83008 18.7803c0 26.5098 21.4902 48 48 48s48 -21.4902 48 -48c0 -0.0107422 -0.0224609 -0.0546875 -0.0224609 -0.0654297c0 -6.63867 -1.35254 -12.9639 -3.79785 -18.7148l103.511 -115.59
c10 -11.1699 12.4395 -26.54 6.37988 -40.1201c-4.35059 -9.71973 -12.5303 -17.0293 -22.4102 -20.5293zM192 415.98c-8.83008 0 -15.9805 -7.15039 -15.9805 -15.9805s7.15039 -15.9805 15.9805 -15.9805s15.9805 7.16016 15.9805 15.9805
s-7.15039 15.9805 -15.9805 15.9805zM304 16h-224v-32h224v32zM60.1699 144.02h263.66l-111.2 106.671h76.0303l-91.2402 101.859c-1.7998 -0.200195 -3.55957 -0.540039 -5.41992 -0.540039s-3.62012 0.330078 -5.41992 0.540039l-91.2402 -101.859h76.0303z" />
    <glyph glyph-name="apple-alt" unicode="&#xf5d1;" horiz-adv-x="448" 
d="M415.22 270.38c27.9307 -39.8799 39.3301 -102.5 29.0498 -159.54c-15.25 -84.5303 -66.2393 -174.84 -163.5 -174.84c-13.4297 0 -27.6191 4.03027 -42.21 11.9697c-9 4.87988 -20.1191 4.87988 -29.1191 0c-14.5908 -7.93945 -28.7705 -11.9697 -42.21 -11.9697
c-97.2705 0 -148.261 90.3096 -163.5 174.83c-10.2803 57.0498 1.11914 119.67 29.0596 159.55c18.5303 26.4697 43.9902 43.1699 73.5801 48.2803c34.6895 6 86.1797 -9.16016 117.64 -23.7705c31.46 14.6104 83.1104 29.75 117.601 23.7705h0.0292969
c29.5908 -5.11035 55.0508 -21.8105 73.5801 -48.2803zM397.03 119.36c8 44.3701 -0.5 94.0195 -21.1201 123.479c-11.1904 15.9805 -25.46 25.5801 -42.4297 28.5c-12.4805 2.19043 -53.8008 0.0898438 -109.48 -30.75c-55.6504 30.8203 -96.9297 32.9102 -109.48 30.75
c-16.9697 -2.91992 -31.2393 -12.5195 -42.4297 -28.5c-20.6201 -29.4697 -29.1201 -79.1094 -21.1201 -123.5c4.06055 -22.5898 28.8398 -135.34 116.261 -135.34c5.25 0 11.9092 2.12012 19.2793 6.12012c11.5605 6.29004 24.5303 9.4502 37.4902 9.4502
s25.9297 -3.15039 37.4902 -9.4502c7.37988 -4 14.0293 -6.12012 19.2793 -6.12012c87.4209 0 112.2 112.75 116.261 135.36zM222.41 336c-8.35059 0 -13.7402 0.650391 -13.7402 0.650391s-6.84961 56.3994 23.71 86.9697c21.1006 21.1104 54.5303 24.3799 73.1904 24.3799
c8.35938 0 13.75 -0.650391 13.75 -0.650391s6.84961 -56.4092 -23.71 -86.9697c-21.1104 -21.1201 -54.54 -24.3799 -73.2002 -24.3799z" />
    <glyph glyph-name="backpack" unicode="&#xf5d4;" horiz-adv-x="448" 
d="M320 368c70.6904 0 128 -57.3096 128 -128v-240c0 -35.3496 -28.6504 -64 -64 -64h-320c-35.3496 0 -64 28.6504 -64 64v240c0 70.6904 57.3096 128 128 128h8v24c0 30.8799 25.1201 56 56 56h64c30.8799 0 56 -25.1201 56 -56v-24h8zM184 392v-24h80v24
c0 4.41016 -3.58984 8 -8 8h-64c-4.41016 0 -8 -3.58984 -8 -8zM320 -16v64h-192v-64h192zM320 96v32c0 17.6699 -14.3301 32 -32 32h-128c-17.6699 0 -32 -14.3301 -32 -32v-32h192zM400 0v240c0 44.1104 -35.8896 80 -80 80h-192c-44.1104 0 -80 -35.8896 -80 -80v-240
c0 -8.82031 7.17969 -16 16 -16h16v144c0 44.1104 35.8896 80 80 80h128c44.1104 0 80 -35.8896 80 -80v-144h16c8.82031 0 16 7.17969 16 16zM304 288c8.83984 0 16 -7.16016 16 -16v-16c0 -8.83984 -7.16016 -16 -16 -16h-160c-8.83984 0 -16 7.16016 -16 16v16
c0 8.83984 7.16016 16 16 16h160z" />
    <glyph glyph-name="bell-school" unicode="&#xf5d5;" horiz-adv-x="512" 
d="M208 336c52.9404 0 96 -43.0596 96 -96s-43.0596 -96 -96 -96s-96 43.0596 -96 96s43.0596 96 96 96zM208 192c26.4697 0 48 21.5303 48 48s-21.5303 48 -48 48s-48 -21.5303 -48 -48s21.5303 -48 48 -48zM464 160c26.5098 0 48 -21.4902 48 -48
c0 -18.54 -10.6299 -34.4404 -26.0195 -42.4404c-8.5 -39.6895 -43.7803 -69.5596 -85.9805 -69.5596h-48v-32c0 -17.6699 -14.3301 -32 -32 -32h-224c-17.6699 0 -32 14.3301 -32 32v122.26c-39.3604 37.8604 -64 90.9404 -64 149.74c0 114.69 93.3096 208 208 208
s208 -93.3096 208 -208c0 -58.7998 -24.6396 -111.87 -64 -149.74v-42.2598h48c16.5498 0 30.7803 10.0996 36.8604 24.4502c-12.5908 8.66016 -20.8604 23.1201 -20.8604 39.5498c0 26.5098 21.4902 48 48 48zM304 -16v71.6699
c-28.75 -15.04 -61.3701 -23.6699 -96 -23.6699s-67.25 8.62988 -96 23.6699v-71.6699h192zM208 80c88.2197 0 160 71.7803 160 160s-71.7803 160 -160 160s-160 -71.7803 -160 -160s71.7803 -160 160 -160z" />
    <glyph glyph-name="bell-school-slash" unicode="&#xf5d6;" 
d="M633.99 -23.0195c6.91016 -5.52051 8.01953 -15.5908 2.5 -22.4902l-10 -12.4902c-5.53027 -6.88965 -15.5898 -8.00977 -22.4902 -2.49023l-598 467.51c-6.90039 5.52051 -8.01953 15.5908 -2.49023 22.4902l10 12.4902
c5.52051 6.90039 15.5898 8.00977 22.4902 2.49023zM576 112c0 -8.66992 -2.5 -16.6602 -6.5498 -23.6396l-74.54 58.2793c8.62012 8.24023 20.2295 13.3604 33.0898 13.3604c26.5098 0 48 -21.4902 48 -48zM272 80c21.0098 0 40.9902 4.30957 59.3896 11.71
l84.6104 -66.1504v-57.5596c0 -17.6699 -14.3301 -32 -32 -32h-224c-17.6699 0 -32 14.3301 -32 32v122.26c-39.3604 37.8701 -64 90.9404 -64 149.74c0 19 2.78027 37.3301 7.58008 54.8398l42.5996 -33.3096c-0.969727 -7.11035 -2.17969 -14.1602 -2.17969 -21.5303
c0 -88.2197 71.7803 -160 160 -160zM368 -16v71.6699c-28.75 -15.04 -61.3701 -23.6699 -96 -23.6699s-67.25 8.62988 -96 23.6699v-71.6699h192zM272 400c-27.5195 0 -53.0498 -7.62012 -75.6797 -19.9102l-40.96 32.0205c33.29 22.6299 73.4395 35.8896 116.64 35.8896
c114.69 0 208 -93.3096 208 -208c0 -25.1797 -4.75 -49.2002 -13 -71.5303l-40.6104 31.75c3.30078 12.79 5.61035 25.9707 5.61035 39.7803c0 88.2197 -71.7803 160 -160 160zM254.92 334.27c5.56055 1.01074 11.2305 1.73047 17.0801 1.73047
c50.7598 0 92.0098 -39.71 95.3604 -89.6396z" />
    <glyph glyph-name="bone" unicode="&#xf5d7;" 
d="M640 264.77c0 -29.46 -8.08984 -53.3398 -32.3604 -72.7695c24.4102 -19.5801 32.3408 -43.54 32.3408 -72.7695c0 -48.0908 -41.6201 -87.2305 -92.8105 -87.2305c-39.7197 0 -75 23.7402 -87.8398 59.0498c-1.08984 3.21973 -6.88965 20.9502 -11.3398 20.9502h-256
c-4.4502 0 -10.25 -17.7197 -11.3398 -20.9502c-12.8408 -35.3193 -48.1201 -59.0498 -87.8408 -59.0498c-51.1895 0 -92.8096 39.1396 -92.8096 87.2305c0 29.2295 7.92969 53.1992 32.3398 72.7695c-24.25 19.4297 -32.3398 43.3203 -32.3398 72.7695
c0 48.0908 41.6201 87.2305 92.8096 87.2305c39.7207 0 75 -23.7305 87.8506 -59.0596c1.10938 -3.24023 6.62012 -20.9404 11.3398 -20.9404h256c4.71973 0 10.2305 17.7002 11.3496 20.9404c12.8408 35.3291 48.1201 59.0596 87.8408 59.0596
c51.1895 0 92.8096 -39.1396 92.8096 -87.2305zM567.94 160.47c-12.6309 5.81055 -20.5 17.9004 -20.5 31.54c0 13.6406 7.83984 25.7002 20.5 31.5303c19.7793 9.07031 24.0596 23.75 24.0596 41.2295c0 21.6406 -20.0898 39.2305 -44.8096 39.2305
c-19.6006 0 -36.75 -11.0098 -42.7207 -27.4199c-18.6396 -53.7705 -41.1094 -52.5801 -56.4697 -52.5801h-256c-15.3604 0 -37.8301 -1.19043 -56.4697 52.5801c-5.9707 16.4004 -23.1299 27.4199 -42.7207 27.4199c-24.7197 0 -44.8096 -17.5898 -44.8096 -39.2305
c0 -17.4893 4.28027 -32.1592 24.0596 -41.25c12.6602 -5.8291 20.5 -17.8896 20.5 -31.5293c0 -13.6406 -7.87988 -25.7207 -20.5 -31.5303c-19.3398 -8.87012 -24.0596 -23.1104 -24.0596 -41.2295c0 -21.6406 20.0898 -39.2305 44.8096 -39.2305
c19.6006 0 36.75 11.0195 42.7207 27.4102c10.0498 29.9297 20.6895 52.5898 56.4697 52.5898h256c35.7803 0 46.4199 -22.6602 56.4697 -52.5801c5.9707 -16.3896 23.1299 -27.4102 42.7207 -27.4102c24.7197 0 44.8096 17.5898 44.8096 39.2305
c0 18.1094 -4.71973 32.3496 -24.0596 41.2295z" />
    <glyph glyph-name="bone-break" unicode="&#xf5d8;" 
d="M640 360.77c0 -29.46 -8.08984 -53.3398 -32.3496 -72.7695c24.4092 -19.5801 32.3398 -43.54 32.3398 -72.7695c0 -48.0908 -41.6201 -87.2305 -92.8105 -87.2305c-39.7197 0 -75 23.7402 -87.8398 59.0498c-1.08984 3.21973 -6.88965 20.9502 -11.3398 20.9502h-64
c0 26.5098 21.4902 48 48 48h16c35.7803 0 46.4199 -22.6602 56.4697 -52.5703c5.9707 -16.3896 23.1299 -27.4102 42.7207 -27.4102c24.7197 0 44.8096 17.5908 44.8096 39.2305c0 18.1104 -4.71973 32.3496 -24.0596 41.2305
c-12.6201 5.80957 -20.5 17.8896 -20.5 31.5293c0 13.6406 7.83984 25.7002 20.5 31.5303c19.7793 9.07031 24.0596 23.75 24.0596 41.2295c0 21.6406 -20.0898 39.2305 -44.8096 39.2305c-19.6006 0 -36.75 -11.0195 -42.7207 -27.4199
c-18.6396 -53.7705 -41.1094 -52.5801 -56.4697 -52.5801h-128c0 26.5098 21.4902 48 48 48h80c4.71973 0 10.2305 17.7002 11.3496 20.9404c12.8408 35.3291 48.1201 59.0596 87.8408 59.0596c51.1797 0 92.8096 -39.1396 92.8096 -87.2305zM234.24 124.99l60.3896 60.3799
c18.75 -18.7402 18.75 -49.1299 0 -67.8799l-26.4395 -26.4404c-3.34082 -3.33984 5.2793 -19.7598 6.7793 -22.8301c15.9004 -34.0596 7.74023 -75.79 -20.3496 -103.88c-36.1904 -36.1895 -93.2998 -37.9502 -127.311 -3.93945
c-20.8193 20.8193 -31.9893 43.4297 -28.5791 74.3193c-31.1006 -3.41992 -53.6504 7.91016 -74.3203 28.5801c-34 34.0098 -32.25 91.1201 3.9502 127.311c28.0898 28.0801 69.8193 36.25 103.87 20.3594c3.0498 -1.50977 19.6895 -9.93945 22.8398 -6.79004
l92.3799 92.3799c18.7402 -18.7393 18.7402 -49.1396 0 -67.8799l-58.4502 -58.4492c-25.2998 -25.3008 -48.8496 -16.8008 -77.1201 -2.74023c-15.8096 7.37012 -35.7402 3.01953 -49.5898 -10.8301c-17.4805 -17.4805 -19.25 -44.1299 -3.9502 -59.4297
c12.8105 -12.8105 26.2197 -19.54 46.1699 -12.1406c13.0303 4.82031 27.1406 1.83984 36.79 -7.7998c9.65039 -9.63965 12.6299 -23.7197 7.7998 -36.79c-7.56934 -20.4004 -0.219727 -33.8096 12.1406 -46.1699c15.2998 -15.2998 41.9502 -13.5303 59.4297 3.9502
c13.8604 13.8594 18.2002 33.7793 10.8203 49.5996c-24.8506 51.2002 -8.11035 66.25 2.75 77.1104z" />
    <glyph glyph-name="book-alt" unicode="&#xf5d9;" horiz-adv-x="448" 
d="M435.1 48.2998c-4.19922 -13 -4.19922 -51.5996 0 -64.5996c7.30078 -1.40039 12.9004 -7.90039 12.9004 -15.7002v-16c0 -8.7998 -7.2002 -16 -16 -16h-352c-44.2002 0 -80 35.7998 -80 80v352c0 44.2002 35.7998 80 80 80h352c8.7998 0 16 -7.2002 16 -16v-368
c0 -7.7998 -5.5 -14.2002 -12.9004 -15.7002zM394 48h-314c-17.5996 0 -32 -14.4004 -32 -32c0 -17.7002 14.2998 -32 32 -32h314c-2.7002 17.2998 -2.7002 46.7002 0 64zM400 400h-320c-17.7002 0 -32 -14.2998 -32 -32v-278.7c9.7998 4.2998 20.5996 6.7002 32 6.7002h320
v304z" />
    <glyph glyph-name="book-reader" unicode="&#xf5da;" horiz-adv-x="512" 
d="M459.91 255.98c20.3799 0 52.0898 -14.3408 52.0898 -50.2002v-178.05c0 -26.6807 -21.25 -48.7002 -48.3398 -50.1201c-34.4102 -1.82031 -120.561 -9.08008 -177 -37.4707c-5.46973 -2.76953 -11.3506 -4.13965 -17.1904 -4.13965h-26.9395
c-5.85059 0 -11.7207 1.37012 -17.1904 4.13965c-56.4395 28.3906 -142.59 35.6602 -177 37.4707c-27.0898 1.41992 -48.3398 23.4297 -48.3398 50.1201v178.05c0 35.8594 31.71 50.21 52.1104 50.2002c0.699219 0 1.38965 -0.0107422 2.05957 -0.0507812
c49.79 -2.83984 140.51 -13 201.84 -47.5693c61.3301 34.5693 152.04 44.7295 201.84 47.5693c0.669922 0.0302734 1.36035 0.0507812 2.06055 0.0507812zM232 -10.4297v177.189c-55.4902 31.0801 -144.72 39.2207 -180.58 41.2598
c-0.589844 -0.0996094 -3.12012 -1.0791 -3.87988 -1.83984l0.459961 -178.449c0 -0.980469 1.15039 -2.10059 2.86035 -2.19043c42.9697 -2.25977 120.51 -10.1699 181.14 -35.9697zM464 27.7305v178.05c-0.290039 1.10938 -2.66992 2.06934 -4.07031 2.2002
c-35.7598 -2.06055 -124.609 -10.2402 -179.93 -41.2207v-177.2c60.7002 25.8203 138.19 33.7207 181.13 35.9805c1.71973 0.0898438 2.87012 1.20996 2.87012 2.19043zM256 256.01c-53.0195 0 -96 42.9902 -96 96s42.9805 95.9902 96 95.9902s96 -42.9902 96 -96
s-42.9805 -95.9902 -96 -95.9902zM256 400c-26.4697 0 -48 -21.5303 -48 -48s21.5303 -48 48 -48s48 21.5303 48 48s-21.5303 48 -48 48z" />
    <glyph glyph-name="bus-school" unicode="&#xf5dd;" horiz-adv-x="512" 
d="M488 320c13.25 0 24 -10.7402 24 -24v-80c0 -13.25 -10.75 -24 -24 -24h-16.9102c15.3203 -17.0098 24.9102 -39.2998 24.9102 -64v-64c0 -29.9502 -20.6504 -54.8799 -48.4297 -61.8701c0.0498047 -0.740234 0.429688 -1.37012 0.429688 -2.12988v-32
c0 -17.6699 -14.3301 -32 -32 -32h-32c-17.6699 0 -32 14.3301 -32 32v32h-192v-32c0 -17.6699 -14.3301 -32 -32 -32h-32c-17.6699 0 -32 14.3301 -32 32v32c0 0.759766 0.379883 1.38965 0.429688 2.12988c-27.7793 6.99023 -48.4297 31.9199 -48.4297 61.8701v64
c0 24.7002 9.58984 46.9902 24.9102 64h-16.9102c-13.25 0 -24 10.75 -24 24v80c0 13.2598 10.75 24 24 24h24v48c0 44.7998 92.1104 80 208 80s208 -35.2002 208 -80v-48h24zM96 363.6v-27.5996h80c0 17.6699 14.3301 32 32 32h96c17.6699 0 32 -14.3301 32 -32h80v27.5996
c-12.2402 13.3203 -68.9902 36.4004 -160 36.4004s-147.76 -23.0801 -160 -36.4004zM416 288h-144v-64h144v64zM96 288v-64h144v64h-144zM448 64v64c0 26.4697 -21.5303 48 -48 48h-288c-26.4697 0 -48 -21.5303 -48 -48v-64c0 -8.82031 7.17969 -16 16 -16h352
c8.82031 0 16 7.17969 16 16zM368 144c17.6699 0 32 -14.3301 32 -32s-14.3301 -32 -32 -32s-32 14.3301 -32 32s14.3301 32 32 32zM144 144c17.6699 0 32 -14.3301 32 -32s-14.3301 -32 -32 -32s-32 14.3301 -32 32s14.3301 32 32 32z" />
    <glyph glyph-name="car-battery" unicode="&#xf5df;" horiz-adv-x="512" 
d="M480 352c17.6699 0 32 -14.3301 32 -32v-288c0 -17.6699 -14.3301 -32 -32 -32h-448c-17.6699 0 -32 14.3301 -32 32v288c0 17.6699 14.3301 32 32 32h48v16c0 8.83984 7.16016 16 16 16h96c8.83984 0 16 -7.16016 16 -16v-16l96 0.0195312v15.9805
c0 8.83984 7.16016 16 16 16h96c8.83984 0 16 -7.16016 16 -16v-16h48zM464 48v256h-416v-256h416zM200 216c4.41992 0 8 -3.58008 8 -8v-32c0 -4.41992 -3.58008 -8 -8 -8h-112c-4.41992 0 -8 3.58008 -8 8v32c0 4.41992 3.58008 8 8 8h112zM424 216
c4.41992 0 8 -3.58008 8 -8v-32c0 -4.41992 -3.58008 -8 -8 -8h-32v-32c0 -4.41992 -3.58008 -8 -8 -8h-32c-4.41992 0 -8 3.58008 -8 8v32h-32c-4.41992 0 -8 3.58008 -8 8v32c0 4.41992 3.58008 8 8 8h32v32c0 4.41992 3.58008 8 8 8h32c4.41992 0 8 -3.58008 8 -8v-32h32
z" />
    <glyph glyph-name="car-bump" unicode="&#xf5e0;" horiz-adv-x="576" 
d="M101.98 139.88c17.6895 8.03027 56.5596 -5.66992 64.7793 -22.8301c8.2207 -17.1494 -19.6797 -26.3301 -37.3701 -34.3496c-17.6797 -8.02051 -34.96 -1.93066 -43.1797 15.2197s-1.91992 33.9404 15.7705 41.96zM337.81 246.85
c17.6807 8.02051 34.96 1.93066 43.1807 -15.2197c8.21973 -17.1494 1.91992 -33.9395 -15.7705 -41.96c-17.6895 -8.01953 -42.8496 -22.9102 -51.0693 -5.75977c-8.2207 17.1494 5.96973 54.9199 23.6592 62.9395zM116.19 -2.03027l10.3096 -21.5098
c5.69043 -11.8701 0.410156 -25.9902 -11.7998 -31.5303l-14.7402 -6.68945c-12.21 -5.54004 -26.7295 -0.400391 -32.4199 11.4795l-58.4199 121.86c-14.0303 29.25 -11.29 61.8496 4.18945 87.79l-5.5791 101.25c-1.77051 32.2295 16.7695 62.2803 46.8398 75.9199
l158.859 72.04c30.0703 13.6396 65.6504 8.13965 89.8906 -13.9004l76.1494 -69.2393c30.3799 -5.14062 57.8105 -24.0508 71.8301 -53.3008l13.75 -28.6699l44.6699 -93.1895c5.69043 -11.8701 0.410156 -25.9902 -11.7998 -31.5303l-14.7402 -6.69043
c-12.21 -5.5293 -26.7295 -0.399414 -32.4199 11.4805l-10.3096 21.5098zM75.1904 293.53c-12.1006 -5.49023 -19.4502 -17.4102 -18.7402 -30.3701l3.51953 -63.79l135.2 61.3203l122.811 55.71l-47.9805 43.6191c-9.75 8.86035 -23.8701 11.0508 -35.96 5.56055z
M95.5703 40.9805l324.25 147.079c8.12988 3.68066 11.6602 13.1104 7.87012 21.0205l-20.6201 43.0098c-11.3604 23.71 -40.4502 34.0098 -64.8301 22.9502l-265.3 -120.33c-24.3809 -11.0596 -34.9707 -39.3496 -23.6006 -63.0703l20.6201 -43.0098
c3.79004 -7.89941 13.4805 -11.3398 21.6104 -7.64941zM464 64c61.75 0 112 -46.6602 112 -104c0 -13.25 -10.75 -24 -24 -24s-24 10.75 -24 24c0 30.8799 -28.7197 56 -64 56s-64 -25.1299 -64 -56c0 -13.25 -10.75 -24 -24 -24s-24 10.75 -24 24
c0 57.3496 50.25 104 112 104z" />
    <glyph glyph-name="car-crash" unicode="&#xf5e1;" 
d="M136.89 324.93c-7.25 -5.35938 -16.5596 -7.43945 -25.2393 -5.67969l-21.6201 4.36035l14 -17.0205c4.52441 -5.52832 7.25098 -12.583 7.25098 -20.2773c0 -1.59375 -0.116211 -3.16113 -0.34082 -4.69238c-1.35059 -8.88965 -6.41016 -16.8301 -13.9102 -21.7803
l-18.3105 -12.1699l21.9404 -2.12012c8.96973 -0.889648 17.1602 -5.53027 22.5 -12.7295c5.30957 -7.2002 7.37012 -16.3701 5.62012 -25.1699l-13.3398 -66.2705c-2.31055 -11.4102 -12.3105 -19.2695 -23.5 -19.2695c-1.56055 0 -3.16016 0.15918 -4.78027 0.469727
c-13 2.62988 -21.4004 15.29 -18.7803 28.2695l9.81055 48.6602l-49.4102 4.78027c-13.5898 1.34961 -24.5 10.75 -27.7803 23.9697c-3.30957 13.2207 1.87988 26.6406 13.2197 34.2002l41.3398 27.4805l-31.5293 38.3096
c-8.53027 10.3301 -9.66016 25.0303 -2.7207 36.5596c6.90039 11.54 20.4707 17.4004 33.5605 14.8408l48.6602 -9.81055l4.80957 49.4102c1.25 13.3096 10.8506 24.5 23.9102 27.7803c13.0303 3.29004 26.8398 -2.0498 34.25 -13.2705l27.4697 -41.3096l38.3105 31.5498
c10.2197 8.37988 25.3096 6.9502 33.7793 -3.28027c8.44043 -10.2295 6.9707 -25.3594 -3.2793 -33.7793l-52.1602 -42.9404c-7.03027 -5.71973 -15.9697 -8.16992 -24.9697 -6.88965c-9.05566 1.38477 -16.876 6.54688 -21.75 13.8594l-12.1904 18.3604l-2.16016 -21.9502
c-0.881836 -9.1748 -5.64648 -17.2324 -12.6602 -22.4502zM534.75 137.33c18.54 -4.96973 27.6104 -20.5996 22.6504 -39.0996s-20.6309 -27.5107 -39.1699 -22.54c-18.54 4.95996 -47.1807 9.3291 -42.2305 27.8291s40.21 38.7803 58.75 33.8105zM617.24 171.89
c19.5596 -23.1992 27.9297 -55.1992 19.4795 -86.7393l-8.2793 -30.9102l-26.9209 -100.46c-3.42969 -12.7998 -16.5898 -20.4004 -29.3896 -16.9707l-15.46 4.14062c-12.7998 3.42969 -20.4004 16.5898 -16.9697 29.3896l6.20996 23.1797l-340.01 91.1104
l-6.20996 -23.1797c-3.43066 -12.7998 -16.5908 -20.4004 -29.3906 -16.9697l-15.4502 4.13965c-12.7998 3.42969 -20.3994 16.5898 -16.9697 29.3896l35.2002 131.37c8.4502 31.5303 31.7002 55.0605 60.2402 65.3701l61.6201 81.9805
c19.6094 26.0996 53.1191 37.6592 84.6494 29.21l166.561 -44.6201c31.5293 -8.4502 54.7695 -35.21 58.71 -67.6201zM333.31 327.9l-38.8291 -51.6406l270.529 -72.4902l-7.7998 64.1406c-1.58008 13.0303 -10.7998 23.6396 -23.4795 27.04l-166.561 44.6299
c-12.6797 3.40039 -25.9697 -1.17969 -33.8604 -11.6797zM590.36 97.5801c6.84961 25.5703 -8.37988 51.9395 -33.9404 58.79l-278.189 74.54c-25.5703 6.84961 -51.9404 -8.37988 -58.79 -33.9404l-12.4209 -46.3701c-2.28906 -8.5293 2.79004 -17.3193 11.3105 -19.5996
l340.01 -91.0996c8.53027 -2.29004 17.3203 2.79004 19.6006 11.3096zM287.47 203.59c18.5498 -4.96973 38.9307 -40.1602 33.9707 -58.6494c-4.9502 -18.4902 -31.9404 -7.95996 -50.4902 -2.99023c-18.54 4.96973 -27.6104 20.6094 -22.6504 39.0996
s20.6299 27.5098 39.1699 22.54z" />
    <glyph glyph-name="car-garage" unicode="&#xf5e2;" 
d="M631.76 279.76c7.73047 -4.29004 10.5205 -14.0498 6.2207 -21.7793l-7.78027 -14.0107c-4.2998 -7.73926 -14.0498 -10.5293 -21.79 -6.22949l-288.41 158.729l-288.42 -158.739c-7.74023 -4.29004 -17.4902 -1.51074 -21.79 6.22949l-7.78027 14.0098
c-4.29004 7.74023 -1.50977 17.4902 6.23047 21.79l300.08 165.221c3.45215 1.91504 7.47559 3.00684 11.7002 3.00684s8.19727 -1.0918 11.6494 -3.00684zM192 120c19.2002 0 48 -28.7197 48 -47.8604c0 -19.1494 -28.7998 -15.96 -48 -15.96s-32 12.7705 -32 31.9102
c0 19.1504 12.7998 31.9102 32 31.9102zM448 120c19.2002 0 32 -12.7598 32 -31.9102c0 -19.1494 -12.7998 -31.9102 -32 -31.9102s-48 -3.17969 -48 15.96c0 19.1406 28.7998 47.8604 48 47.8604zM506.21 181.83c31.75 -15.6602 53.79 -48.0303 53.79 -85.8301v-136
c0 -13.25 -10.75 -24 -24 -24h-16c-13.25 0 -24 10.75 -24 24v24h-352v-24c0 -13.25 -10.75 -24 -24 -24h-16c-13.25 0 -24 10.75 -24 24v136c0 37.7998 22.04 70.1699 53.7803 85.8301l25.79 64.04c12.1895 30.2803 41.5596 50.1201 74.21 50.1201h172.43
c32.6504 0 62.0205 -19.8398 74.21 -50.1201zM204.1 227.94l-14.4697 -35.9404h260.74l-14.4502 35.9404c-4.91016 12.1797 -16.5596 20.0498 -29.6895 20.0498h-172.44c-13.1299 0 -24.79 -7.87012 -29.6904 -20.0498zM512 48v48c0 26.4697 -21.5303 48 -48 48h-288
c-26.4697 0 -48 -21.5303 -48 -48v-48c0 -8.82031 7.17969 -16 16 -16h352c8.82031 0 16 7.17969 16 16z" />
    <glyph glyph-name="car-mechanic" unicode="&#xf5e3;" horiz-adv-x="512" 
d="M503.91 344c5.93945 0 9.89941 -6.30957 7.24023 -11.6201c-13.0605 -26.2598 -39.9102 -44.3799 -71.2305 -44.3799c-32.7402 0 -60.5596 19.8301 -72.9395 48h-222.25c-10.3203 -23.5303 -31.4004 -41.6602 -57.0508 -46.5195
c-37.8301 -7.16016 -71.6494 12.3594 -86.8398 42.8799c-2.64941 5.33008 1.2998 11.6396 7.25 11.6396h55.9805l24 24l-24 24h-55.9805c-5.93945 0 -9.89941 6.2998 -7.25 11.6299c13.0605 26.25 39.9102 44.3701 71.2305 44.3701c32.7393 0 60.5596 -19.8301 72.9395 -48
h222.25c10.3301 23.5303 31.4004 41.6504 57.0498 46.5195c37.8301 7.16016 71.6504 -12.3594 86.8408 -42.8799c2.64941 -5.33008 -1.30078 -11.6396 -7.25 -11.6396h-55.9707l-24 -24l24 -24h55.9805zM434.21 181.83c31.75 -15.6602 53.79 -48.0303 53.79 -85.8301v-136
c0 -13.25 -10.75 -24 -24 -24h-16c-13.25 0 -24 10.75 -24 24v24h-352v-24c0 -13.25 -10.75 -24 -24 -24h-16c-13.25 0 -24 10.75 -24 24v136c0 37.7998 22.04 70.1699 53.7803 85.8398l25.79 64.04c12.1895 30.2803 41.5596 50.1201 74.21 50.1201h172.439
c32.6504 0 62.0205 -19.8398 74.2002 -50.1299zM132.1 227.95l-14.4697 -35.9404h260.76l-14.4697 35.9404c-4.91016 12.1797 -16.5596 20.0498 -29.6895 20.0498h-172.44c-13.1299 0 -24.79 -7.87012 -29.6904 -20.0498zM440 48v48c0 26.4697 -21.5303 48 -48 48h-288
c-26.4697 0 -48 -21.5303 -48 -48v-48c0 -8.82031 7.17969 -16 16 -16h352c8.82031 0 16 7.17969 16 16zM120 120.01c19.2002 0 48 -28.71 48 -47.8594c0 -19.1504 -28.7998 -15.96 -48 -15.96s-32 12.7598 -32 31.9092c0 19.1504 12.7998 31.9102 32 31.9102zM376 120.01
c19.2002 0 32 -12.7598 32 -31.9102c0 -19.1494 -12.7998 -31.9092 -32 -31.9092s-48 -3.18066 -48 15.96c0 19.1396 28.7998 47.8594 48 47.8594z" />
    <glyph glyph-name="car-side" unicode="&#xf5e4;" 
d="M544 256c53.0195 0 96 -42.9805 96 -96v-80c0 -8.83984 -7.16016 -16 -16 -16h-48c0 -53.0195 -42.9805 -96 -96 -96s-96 42.9805 -96 96h-128c0 -53.0195 -42.9805 -96 -96 -96s-96 42.9805 -96 96h-48c-8.83984 0 -16 7.16016 -16 16v112
c0 29.79 20.4404 54.5996 48 61.7402v2.25977l47.9102 119.77c9.71973 24.3008 33.25 40.2305 59.4199 40.2305h213.91c20.2207 0 38.2402 -9.35547 49.9697 -24.0195l108.79 -135.98h16zM280 368v-112h186.53l-84.7998 106c-3.05078 3.80957 -7.60059 6 -12.4902 6
h-89.2402zM140.47 357.94l-40.7695 -101.94h132.3v112h-76.6699c-6.58008 0 -12.4102 -3.9502 -14.8604 -10.0596zM160 16c26.5098 0 48 21.4902 48 48s-21.4902 48 -48 48s-48 -21.4902 -48 -48s21.4902 -48 48 -48zM480 16c26.5098 0 48 21.4902 48 48s-21.4902 48 -48 48
s-48 -21.4902 -48 -48s21.4902 -48 48 -48zM592 112v48c0 26.4697 -21.5303 48 -48 48h-480c-8.82031 0 -16 -7.17969 -16 -16v-80h29.3096c16.6406 28.5703 47.2402 48 82.6904 48s66.0596 -19.4297 82.6904 -48h154.619c16.6406 28.5703 47.2402 48 82.6904 48
s66.0596 -19.4297 82.6904 -48h29.3096z" />
    <glyph glyph-name="car-tilt" unicode="&#xf5e5;" 
d="M198.33 133.95c13.4795 13.4795 53.8604 13.54 67.3096 0.0898438c13.4404 -13.4404 -9.01953 -31.4199 -22.5 -44.9004c-13.4795 -13.4795 -31.4297 -13.5 -44.8701 -0.0595703c-13.4492 13.4395 -13.4199 31.3896 0.0605469 44.8701zM378.06 313.67
c13.4805 13.4805 31.4307 13.5 44.8604 0.0703125c13.4502 -13.4502 13.4199 -31.3906 -0.0595703 -44.8701c-13.4805 -13.4805 -31.46 -35.9404 -44.9004 -22.5c-13.4404 13.4395 -13.3799 53.8203 0.0996094 67.2998zM624 -16c8.83984 0 16 -7.16016 16 -16v-16
c0 -8.83984 -7.16016 -16 -16 -16h-608c-8.83984 0 -16 7.16016 -16 16v16c0 8.83984 7.16016 16 16 16h175.03l-54.4707 54.4805c-22.9199 22.9199 -31.5996 54.5898 -26.2998 84.2393l-39.8994 93.6807c-12.7002 29.8193 -6.01074 64.3594 16.9092 87.2793
l121.061 121.061c22.9199 22.9199 57.4697 29.6094 87.29 16.9102l93.6797 -39.9004c29.6504 5.2998 61.3203 -3.37988 84.2402 -26.2998l95.4795 -95.4805c9.30078 -9.30957 9.30078 -24.3994 0 -33.7002l-11.2295 -11.2295c-9.30957 -9.2998 -24.4004 -9.2998 -33.7002 0
l-16.8496 16.8496l-247.12 -247.12l20.2598 -20.7695h343.62zM114.2 235.06l25.1396 -59.0098l196.62 196.62l-59.0195 25.1396c-11.9902 5.10059 -25.6904 2.4502 -34.9102 -6.76953l-121.07 -121.07c-9.20996 -9.20996 -11.8701 -22.9199 -6.75977 -34.9102z
M203.95 38.4697c6.18945 -6.18945 16.2695 -6.18945 22.4697 0l247.12 247.12c6.19043 6.19043 6.19043 16.2705 0 22.46l-33.7002 33.7002c-18.5801 18.5801 -48.8203 18.5801 -67.3994 0l-202.19 -202.19c-18.5801 -18.5791 -18.5801 -48.8096 0 -67.3896z" />
    <glyph glyph-name="clipboard-prescription" unicode="&#xf5e8;" horiz-adv-x="384" 
d="M336 384c26.5098 0 48 -21.4902 48 -48v-352c0 -26.5098 -21.4902 -48 -48 -48h-288c-26.5098 0 -48 21.4902 -48 48v352c0 26.5098 21.4902 48 48 48h80c0 35.3496 28.6504 64 64 64s64 -28.6504 64 -64h80zM192 400c-8.82031 0 -16 -7.17969 -16 -16
s7.17969 -16 16 -16s16 7.17969 16 16s-7.17969 16 -16 16zM336 -8v336c0 4.41992 -3.58008 8 -8 8h-40v-32c0 -8.83984 -7.16016 -16 -16 -16h-160c-8.83984 0 -16 7.16016 -16 16v32h-40c-4.41992 0 -8 -3.58008 -8 -8v-336c0 -4.41992 3.58008 -8 8 -8h272
c4.41992 0 8 3.58008 8 8zM285.66 119.03l-36.71 -36.6904c-0.910156 -0.910156 -2.16016 -0.990234 -3.31055 -1.37012l40 -40c3.12012 -3.12012 3.12012 -8.18945 0 -11.3096l-11.3096 -11.3105c-3.12012 -3.11914 -8.19043 -3.11914 -11.3105 0l-40 40
c-0.379883 -1.14941 -0.449219 -2.38965 -1.36914 -3.30957l-36.6904 -36.6904c-3.12012 -3.11914 -8.19043 -3.11914 -11.3096 0l-11.3105 11.3105c-3.12012 3.12012 -3.12012 8.18945 0 11.3096l36.6904 36.6904c0.910156 0.910156 2.16016 0.990234 3.30957 1.37012
l-48.9697 48.9697h-25.3701v-40c0 -4.41992 -3.58008 -8 -8 -8h-16c-4.41992 0 -8 3.58008 -8 8v144c0 4.41992 3.58008 8 8 8h64c30.9297 0 56 -25.0703 56 -56c0 -22.0303 -12.8301 -40.9004 -31.3203 -50.0498l32.3008 -32.2998
c0.379883 1.14941 0.459961 2.39941 1.36914 3.30957l36.6904 36.6904c3.12012 3.11914 8.19043 3.11914 11.3096 0l11.3105 -11.3105c3.12012 -3.12012 3.12012 -8.18945 0 -11.3096zM168 160c13.2305 0 24 10.7695 24 24s-10.7695 24 -24 24h-40v-48h40z" />
    <glyph glyph-name="compass-slash" unicode="&#xf5e9;" 
d="M633.99 -23.0195c6.91016 -5.52051 8.01953 -15.5908 2.5 -22.4902l-10 -12.4902c-5.53027 -6.88965 -15.5898 -8.00977 -22.4902 -2.49023l-598 467.51c-6.90039 5.52051 -8.01953 15.5908 -2.49023 22.4902l10 12.4902
c5.52051 6.90039 15.5898 8.00977 22.4902 2.49023zM320 392c-37.46 0 -72.4199 -10.54 -102.43 -28.5303l-40.0605 31.3203c40.3398 28.3896 89.4102 45.21 142.49 45.21c136.97 0 248 -111.03 248 -248c0 -31.5303 -6.12012 -61.5801 -16.8496 -89.3301l-39.8408 31.1504
c5.62012 18.4297 8.69043 37.9492 8.69043 58.1797c0 110.28 -89.7197 200 -200 200zM419.94 318.14c16.6592 7.61035 33.8096 -9.54004 26.1992 -26.1992l-36.0898 -78.96l-81.2295 63.5098zM220.06 65.8604c-16.6592 -7.61035 -33.8096 9.5498 -26.1895 26.1992
l36.0898 78.96l81.2305 -63.5098zM320 -8c37.46 0 72.4199 10.54 102.43 28.54l40.0605 -31.3203c-40.3398 -28.3994 -89.4102 -45.2197 -142.49 -45.2197c-136.97 0 -248 111.03 -248 248c0 31.5303 6.12012 61.5801 16.8496 89.3301l39.8408 -31.1504
c-5.61035 -18.4199 -8.69043 -37.9395 -8.69043 -58.1797c0 -110.28 89.7197 -200 200 -200z" />
    <glyph glyph-name="diploma" unicode="&#xf5ea;" 
d="M608.64 368.42c41.8105 -70.9395 41.8105 -217.939 0.0107422 -288.86c-5.63086 -9.5498 -17.0703 -15.5596 -29.3809 -15.5596c-7.31934 0 2.58008 -2.66992 -134.619 43.5596c-7.55078 2.54004 -15.2207 4.62012 -22.8906 6.69043l57.4004 -98.9199
c3.0498 -7.49023 -2.65039 -15.6299 -10.7305 -15.3203l-36.6396 -0.00976562l-25.2002 -28.5195c-5.55957 -5.87012 -15.3398 -4.04004 -18.3896 3.44922l-68.2002 121.061l-68.1904 -121.07c-3.05957 -7.49023 -12.8291 -9.32031 -18.3896 -3.4502l-25.21 28.5205
l-36.6396 0.00976562c-8.08008 -0.30957 -13.7803 7.83008 -10.7305 15.3203l57.4004 98.9102c-7.66992 -2.08008 -15.3398 -4.15039 -22.8799 -6.69043c-136.601 -46.0205 -127.271 -43.5596 -134.62 -43.5596c-12.3203 0 -23.75 6.01953 -29.3799 15.5596
c-41.8105 70.9297 -41.8105 217.94 0 288.87c5.62988 9.5498 17.0693 15.5596 29.3799 15.5596c7.30957 0 -2.58984 2.66992 134.6 -43.5498c40.1699 -13.54 82.2705 -20.4395 124.65 -20.4395c43.5498 0.00390625 85.5205 7.25586 124.649 20.4395
c136.601 46.0205 127.271 43.5605 134.62 43.5605c12.3203 0 23.7598 -6.02051 29.3799 -15.5605zM180.02 153.04c23.1709 7.7998 46.8408 13.5703 70.8301 17.4102l5.15039 8.87988v97.5801c-25.75 3.7998 -51.1699 9.66992 -75.9805 18.0303l-113 38.0693
c-25.4893 -56.4795 -25.4893 -161.56 0 -218.04zM572.98 114.96c25.4795 56.4805 25.4795 161.56 0.00976562 218.04l-113 -38.0703c-24.8203 -8.35938 -50.2402 -14.2295 -75.9805 -18.0293v-97.5908l5.15039 -8.87988c23.9795 -3.83008 47.6602 -9.59961 70.8203 -17.3994
z" />
    <glyph glyph-name="draw-circle" unicode="&#xf5ed;" horiz-adv-x="512" 
d="M512 192c0 -30.2998 -21.1104 -55.54 -49.3896 -62.1602c-20.8408 -69.1201 -75.3301 -123.6 -144.44 -144.45c-6.62988 -28.2793 -31.8701 -49.3896 -62.1699 -49.3896s-55.54 21.1104 -62.1699 49.3799c-69.1104 20.8506 -123.59 75.3398 -144.44 144.45
c-28.2695 6.62988 -49.3896 31.8701 -49.3896 62.1699s21.1201 55.54 49.3896 62.1602c20.8408 69.1201 75.3301 123.6 144.44 144.45c6.62988 28.2793 31.8701 49.3896 62.1699 49.3896s55.54 -21.1104 62.1699 -49.3799c69.1104 -20.8506 123.59 -75.3398 144.44 -144.45
c28.2793 -6.62988 49.3896 -31.8701 49.3896 -62.1699zM448 176c8.82031 0 16 7.17969 16 16s-7.17969 16 -16 16s-16 -7.17969 -16 -16s7.17969 -16 16 -16zM256 400c-8.82031 0 -16 -7.17969 -16 -16s7.17969 -16 16 -16s16 7.17969 16 16s-7.17969 16 -16 16zM64 208
c-8.82031 0 -16 -7.17969 -16 -16s7.17969 -16 16 -16s16 7.17969 16 16s-7.17969 16 -16 16zM256 -16c8.82031 0 16 7.17969 16 16s-7.17969 16 -16 16s-16 -7.17969 -16 -16s7.17969 -16 16 -16zM309.89 34.2803c48.7119 16.6211 87.209 55.1182 103.83 103.83
c-17.8193 11.3594 -29.7197 31.1895 -29.7197 53.8896c0 22.71 11.9004 42.5303 29.7305 53.8896c-16.6348 48.707 -55.1318 87.2002 -103.841 103.83c-11.3594 -17.8193 -31.1797 -29.7197 -53.8896 -29.7197c-22.7002 0 -42.5303 11.9004 -53.8799 29.7197
c-48.7129 -16.623 -87.2119 -55.1191 -103.84 -103.83c17.8193 -11.3594 29.7197 -31.1797 29.7197 -53.8896c0 -22.7002 -11.9004 -42.5303 -29.7197 -53.8896c16.624 -48.71 55.1201 -87.2061 103.83 -103.83c11.3594 17.8193 31.1895 29.7197 53.8896 29.7197
c22.71 0 42.5303 -11.9004 53.8896 -29.7197z" />
    <glyph glyph-name="draw-polygon" unicode="&#xf5ee;" horiz-adv-x="448" 
d="M384 96c35.3496 0 64 -28.6504 63.9902 -64c0 -35.3496 -28.6504 -64 -64 -64c-26.8398 0 -49.75 16.5596 -59.25 40h-201.49c-9.5 -23.4404 -32.4004 -40 -59.25 -40c-35.3496 0 -64 28.6504 -64 64c0 26.8496 16.5596 49.75 40 59.2598v201.49
c-23.4404 9.5 -40 32.4102 -40 59.25c0 35.3496 28.6504 64 64 64c26.8496 0 49.75 -16.5596 59.25 -40h201.51c9.5 23.4404 32.4102 40 59.25 40c35.3506 0 64 -28.6504 64 -64s-28.6494 -64 -64 -64c-3.35938 0 -6.58984 0.490234 -9.80957 0.990234l-35.21 -58.6807
c8.05957 -10.71 13.0098 -23.8799 13.0098 -38.3096s-4.9502 -27.5996 -13.0195 -38.3096l35.21 -58.6807c3.21973 0.5 6.44922 0.990234 9.80957 0.990234zM88 91.25c16.0156 -6.50293 28.7471 -19.2344 35.25 -35.25h201.49
c2.09961 5.17969 4.95996 9.91992 8.2793 14.3203l-35.21 58.6699c-3.22949 -0.5 -6.45996 -0.990234 -9.81934 -0.990234c-35.3506 0 -64 28.6504 -64 64s28.6494 64 64 64c3.37012 0 6.59961 -0.490234 9.81934 -0.990234l35.21 58.6699
c-3.31934 4.40039 -6.17969 9.12988 -8.2793 14.3203h-201.49c-6.50293 -16.0156 -19.2344 -28.7471 -35.25 -35.25v-201.5zM288 208c-8.82031 0 -16 -7.17969 -16 -16s7.17969 -16 16 -16s16 7.17969 16 16s-7.17969 16 -16 16zM384 368c-8.82031 0 -16 -7.17969 -16 -16
s7.17969 -16 16 -16s16 7.17969 16 16s-7.17969 16 -16 16zM64 368c-8.82031 0 -16 -7.17969 -16 -16s7.17969 -16 16 -16s16 7.17969 16 16s-7.17969 16 -16 16zM64 16c8.82031 0 16 7.17969 16 16s-7.17969 16 -16 16s-16 -7.17969 -16 -16s7.17969 -16 16 -16zM384 16
c8.82031 0 16 7.17969 16 16s-7.17969 16 -16 16s-16 -7.17969 -16 -16s7.17969 -16 16 -16z" />
    <glyph glyph-name="draw-square" unicode="&#xf5ef;" horiz-adv-x="448" 
d="M408 91.25c23.4404 -9.5 40 -32.4004 39.9902 -59.25c0 -35.3496 -28.6504 -64 -64 -64c-26.8398 0 -49.75 16.5596 -59.25 40h-201.49c-9.5 -23.4404 -32.4004 -40 -59.25 -40c-35.3496 0 -64 28.6504 -64 64c0 26.8496 16.5596 49.75 40 59.2598v201.49
c-23.4404 9.5 -40 32.4102 -40 59.25c0 35.3496 28.6504 64 64 64c26.8496 0 49.75 -16.5596 59.25 -40h201.5c9.5 23.4404 32.4102 40 59.25 40c35.3496 0 64 -28.6504 64 -64c0 -26.8398 -16.5596 -49.75 -40 -59.25v-201.5zM88 91.25
c16.0127 -6.50195 28.7441 -19.2295 35.25 -35.2402h201.49c6.50293 16.0156 19.2344 28.7471 35.25 35.25v201.49c-16.0156 6.50293 -28.7471 19.2344 -35.25 35.25h-201.49c-6.50293 -16.0156 -19.2344 -28.7471 -35.25 -35.25v-201.5zM384 368
c-8.82031 0 -16 -7.17969 -16 -16s7.17969 -16 16 -16s16 7.17969 16 16s-7.17969 16 -16 16zM64 368c-8.82031 0 -16 -7.17969 -16 -16s7.17969 -16 16 -16s16 7.17969 16 16s-7.17969 16 -16 16zM64 16c8.82031 0 16 7.17969 16 16s-7.17969 16 -16 16
s-16 -7.17969 -16 -16s7.17969 -16 16 -16zM384 16c8.82031 0 16 7.17969 16 16s-7.17969 16 -16 16s-16 -7.17969 -16 -16s7.17969 -16 16 -16z" />
    <glyph glyph-name="ear" unicode="&#xf5f0;" horiz-adv-x="384" 
d="M192 356c55.1201 0 100 -44.8604 100 -100v-20c0 -6.61035 -5.37988 -12 -12 -12h-16c-6.62012 0 -12 5.38965 -12 12v20c0 33.0801 -26.9102 60 -60 60s-60 -26.9199 -60 -60c0 -15.4404 12.5596 -28 28 -28c37.5 0 68 -30.5 68 -68s-30.5 -68 -68 -68h-20
c-6.62012 0 -12 5.38965 -12 12v16c0 6.61035 5.37988 12 12 12h20c15.4404 0 28 12.5596 28 28s-12.5596 28 -28 28c-37.5 0 -68 30.5 -68 68c0 55.1396 44.8799 100 100 100zM192 448c106.04 0 192 -85.96 192 -192c0 -71.0195 -38.6699 -132.89 -96 -166.1v-9.90039
c0 -79.5303 -64.4697 -144 -144 -144s-144 64.4697 -144 144v176c0 106.04 85.96 192 192 192zM263.94 131.43c44.4492 25.75 72.0596 73.4805 72.0596 124.57c0 79.4004 -64.5996 144 -144 144s-144 -64.5996 -144 -144v-176.01c0 -52.9307 43.0596 -96 96 -96
s96 43.0693 96 96v37.5693z" />
    <glyph glyph-name="engine-warning" unicode="&#xf5f2;" 
d="M320 416c123.7 0 224 -100.3 224 -224c0 -123.76 -100.3 -224 -224 -224s-224 100.24 -224 224c0 123.7 100.3 224 224 224zM320 16c97.0498 0 176 78.9502 176 176s-78.9502 176 -176 176s-176 -78.9502 -176 -176s78.9502 -176 176 -176zM320 128
c17.6699 0 32 -14.3301 32 -32s-14.3301 -32 -32 -32s-32 14.3301 -32 32s14.3301 32 32 32zM342.32 320c9.46973 0 16.8594 -8.16992 15.9199 -17.5898l-12.7998 -128c-0.820312 -8.17969 -7.7002 -14.4102 -15.9209 -14.4102h-19.0391
c-8.2207 0 -15.1006 6.23047 -15.9209 14.4102l-12.7998 128c-0.939453 9.41992 6.4502 17.5898 15.9199 17.5898h44.6406zM48 192c0 -59.5303 19.5498 -117.37 55.3398 -164.52c5.16992 -6.82031 4.46973 -16.3105 -2.04004 -21.8604l-12.1895 -10.4004
c-6.91992 -5.88965 -17.6201 -5.0498 -23.1504 2.16016c-42.6396 55.6602 -65.96 124.15 -65.96 194.62c0 70.5 23.3203 138.98 65.9805 194.63c5.5293 7.20996 16.2393 8.0498 23.1494 2.15039l12.2002 -10.4102c6.50977 -5.5498 7.20996 -15.0498 2.03027 -21.8604
c-35.8105 -47.1299 -55.3604 -104.979 -55.3604 -164.51zM572.73 388.29c43.4795 -55.9502 67.2695 -125.021 67.2695 -196.29c0 -71.3096 -23.79 -140.38 -67.2598 -196.32c-5.58008 -7.17969 -16.2998 -7.94922 -23.1699 -2l-12.1504 10.5
c-6.46973 5.60059 -7.09961 15.0898 -1.87988 21.8701c36.5 47.3799 56.46 105.72 56.46 165.95c0 60.1904 -19.96 118.53 -56.4697 165.91c-5.2207 6.78027 -4.58984 16.2695 1.87988 21.8701l12.1494 10.5098c6.88086 5.9502 17.5908 5.17969 23.1709 -2z" />
    <glyph glyph-name="gas-pump-slash" unicode="&#xf5f4;" 
d="M633.99 -23.0195c6.91016 -5.52051 8.01953 -15.5908 2.5 -22.4902l-10 -12.4902c-5.53027 -6.88965 -15.5898 -8.00977 -22.4902 -2.49023l-598 467.51c-6.90039 5.52051 -8.01953 15.5908 -2.49023 22.4902l10 12.4902
c5.52051 6.90039 15.5898 8.00977 22.4902 2.49023zM480 350.06l-43.3203 43.3301c-3.12012 3.12012 -3.12012 8.19043 0 11.3105l22.6299 22.6201c3.12012 3.12012 8.19043 3.12012 11.3105 0l86.6299 -86.6299c12.0098 -12.0107 18.75 -28.29 18.75 -45.2607v-212.189
l-48 37.5293v112.04c-27.0703 3.9209 -48 27.0508 -48 55.1904v62.0596zM336 400h-165.16l-52.0498 40.6904c7.34961 4.55957 15.9297 7.30957 25.21 7.30957h192c26.5098 0 48 -21.4902 48 -48v-166.65l-48 37.5303v129.12zM408 -16c4.41992 0 8 -3.58008 8 -8v-32
c0 -4.41992 -3.58008 -8 -8 -8h-336c-4.41992 0 -8 3.58008 -8 8v32c0 4.41992 3.58008 8 8 8h24v291.74l48 -37.5303v-254.21h192v104.11l48 -37.5303v-66.5801h24z" />
    <glyph glyph-name="glasses-alt" unicode="&#xf5f5;" horiz-adv-x="576" 
d="M560.51 222.1c13.3301 -53.4395 15.4902 -74.2197 15.4805 -118.1c0 -75.1104 -60.8906 -136 -136 -136c-72.3701 0 -130.971 56.6904 -135.19 128h-33.6094c-4.2207 -71.3096 -62.8203 -128 -135.19 -128c-75.1104 0 -136 60.8896 -136 136
c0 43.8799 2.16016 64.6602 15.4902 118.1l31.7598 127.261c6.7002 26.8594 33.75 66.6396 85.4199 66.6396c15.6299 0 23.0303 -2.94043 43.0205 -9.58984c8.38965 -2.79004 12.9199 -11.8604 10.1191 -20.2402l-5.05957 -15.1797
c-2.24023 -6.7002 -8.48047 -10.9404 -15.1797 -10.9404c-3.53027 0 -4.81055 0.740234 -18.2305 5.20996c-26.0703 8.68066 -48.21 -6.12988 -53.5303 -27.54l-29.6699 -118.68c20.8906 13.0801 45.3906 20.96 71.8604 20.96c55.0898 0 102.27 -32.9102 123.65 -80h56.6992
c21.3809 47.0898 68.5605 80 123.65 80c26.4697 0 50.9697 -7.87988 71.8604 -20.9697l-29.6699 118.68c-5.33008 21.4102 -27.46 36.2197 -53.5303 27.54c-13.4102 -4.46973 -14.6904 -5.20996 -18.2305 -5.20996c-6.69922 0 -12.9395 4.24023 -15.1797 10.9404
l-5.05957 15.1797c-2.80078 8.37988 1.72949 17.4502 10.1191 20.2402c19.9902 6.65918 27.3906 9.59961 43.0205 9.59961c51.6797 0 78.7197 -39.7803 85.4199 -66.6396zM136 16c48.5195 0 88 39.4805 88 88s-39.4805 88 -88 88s-88 -39.4805 -88 -88s39.4805 -88 88 -88z
M440 16c48.5195 0 88 39.4805 88 88s-39.4805 88 -88 88s-88 -39.4805 -88 -88s39.4805 -88 88 -88z" />
    <glyph glyph-name="heart-rate" unicode="&#xf5f8;" 
d="M624 216c8.83984 0 16 -7.16016 16 -16v-16c0 -8.83984 -7.16016 -16 -16 -16h-128.78l-57.5 -122.22c-4.31934 -9.14062 -13.4395 -14.8105 -23.9395 -13.6699c-10.0605 0.919922 -18.4707 8.05957 -21 17.8301l-70.0898 268.64l-75.1904 -363.44
c-2.25 -10.8496 -11.6299 -18.7598 -22.7197 -19.1201c-0.25 -0.0195312 -0.530273 -0.0195312 -0.780273 -0.0195312l-0.00292969 0.00585938c-11.0264 0 -20.3242 7.45996 -23.1172 17.6045l-59.1602 214.38h-125.72c-8.83984 0 -16 7.16016 -16 16v16
c0 8.83984 7.16016 16 16 16h143.98c10.7998 0 20.2793 -7.20996 23.1494 -17.6201l37.5303 -136.03l75.8398 366.521c2.25977 10.9199 11.7598 18.8398 22.8799 19.1201c0.209961 0.0195312 0.429688 0.0195312 0.620117 0.0195312
c10.9102 0 20.4697 -7.36035 23.2197 -17.9404l79.2803 -303.89l35.7803 76.04c3.95996 8.41992 12.4199 13.79 21.7197 13.79h144z" />
    <glyph glyph-name="inhaler" unicode="&#xf5f9;" 
d="M128 48c17.6699 0 32 -14.3301 32 -32s-14.3301 -32 -32 -32s-32 14.3301 -32 32s14.3301 32 32 32zM32 0c17.6699 0 32 -14.3301 32 -32s-14.3301 -32 -32 -32s-32 14.3301 -32 32s14.3301 32 32 32zM32 96c17.6699 0 32 -14.3301 32 -32s-14.3301 -32 -32 -32
s-32 14.3301 -32 32s14.3301 32 32 32zM32 192c17.6699 0 32 -14.3301 32 -32s-14.3301 -32 -32 -32s-32 14.3301 -32 32s14.3301 32 32 32zM128 144c17.6699 0 32 -14.3301 32 -32s-14.3301 -32 -32 -32s-32 14.3301 -32 32s14.3301 32 32 32zM409.19 336.18
l176.979 -176.96c8.04004 -8.04004 11.2002 -19.75 8.32031 -30.75l-37.96 -144.71c-7.37988 -28.1396 -32.8203 -47.7598 -61.9102 -47.7598h-270.62c-17.6699 0 -32 14.3301 -32 32v192c0 17.6699 14.3301 32 32 32h122.49l35.9102 136.93
c1.97949 7.56055 8.66992 11.9502 15.54 11.9502c3.98926 0 8.04004 -1.49023 11.25 -4.7002zM510.1 -4.05957l35.6309 135.829l-131.04 131.04l-21.7705 -82.9893l-9.38965 -35.8203h-143.53v-160h254.62c7.26953 0 13.6396 4.91016 15.4795 11.9404zM616.27 409.98
c17.0801 -4.58008 27.2109 -22.1201 22.6309 -39.1904l-46.29 -172.771l-39.1904 39.1904l34.9805 130.55l-106.891 28.6406l-18.4502 -68.8301l-39.1895 39.1895l15.4102 57.5205c3.83008 14.29 16.7598 23.7197 30.8896 23.7197
c2.74023 0 5.53027 -0.360352 8.2998 -1.09961z" />
    <glyph glyph-name="kidneys" unicode="&#xf5fb;" 
d="M273.01 230.39c19.1299 -9.58984 30.9707 -28.7793 30.9707 -50.1094l0.0195312 -228.28c0 -8.83008 -7.16016 -16 -16 -16h-16.0098c-8.83008 0 -16 7.16016 -16 16l-0.0302734 228.28c0 3.06934 -1.71973 5.7793 -4.44043 7.16016l-24.9395 13.2998
c7.7002 -27.0098 4.41992 -55.5098 -9.41016 -80.25c-27 -48.25 -75.4199 -56.4502 -97.6504 -56.4502c-17.5693 0 -85.3291 4.5498 -109.619 88.3799c-28.1006 95.9805 4.62988 198.89 85.46 268.53c45.4795 39.1797 115.569 35.3496 156.239 -8.60059
c46.3809 -50.1299 30.9707 -118.779 -8.93945 -153.13c-2.58008 -2.21973 -5.5498 -5.08984 -8.41992 -8.46973zM211.33 295.61c25.71 22.1797 27.7295 59.6094 5 84.1494c-22.3105 24.1201 -62.3496 28.3301 -89.6504 4.83008
c-64.2598 -55.3896 -95.0098 -134.85 -67.8301 -228.63c9.15039 -31.1602 44.4805 -50.6699 78.0801 -41.54c24.8203 6.75 54.9199 34.54 43.3906 73.7305c-18.8203 65.1494 19.6699 97.6992 31.0098 107.46zM544.64 420.95
c80.8301 -69.6406 113.561 -172.55 85.4502 -268.53c-24.29 -83.8301 -92.04 -88.3799 -109.62 -88.3799c-22.2295 0 -70.6494 8.2002 -97.6494 56.4502c-13.8301 24.7402 -17.1104 53.2402 -9.41016 80.25l-24.9404 -13.2998
c-2.71973 -1.38086 -4.43945 -4.10059 -4.43945 -7.16016l-0.0205078 -228.28c0 -8.83008 -7.16016 -16 -16 -16h-16.0098c-8.83008 0 -16 7.16016 -16 16l0.0195312 228.28c0 21.3193 11.8506 40.5098 30.9805 50.1094l38.7695 20.3604
c-2.60742 3.05273 -5.38281 5.84375 -8.41992 8.46973c-39.9092 34.3506 -55.3193 103.011 -8.93945 153.13c40.6699 43.9502 110.75 47.7803 156.229 8.60059zM581.15 155.95c27.1797 93.79 -3.57031 173.24 -67.8301 228.62
c-27.3008 23.5 -67.3398 19.29 -89.6504 -4.83008c-22.7295 -24.5303 -20.71 -61.96 5 -84.1406c11.3398 -9.75977 49.8301 -42.3096 31.0098 -107.46c-11.5293 -39.1895 18.5703 -66.9795 43.3906 -73.7295c33.5996 -9.12988 68.9199 10.3799 78.0801 41.54z" />
    <glyph glyph-name="laptop-code" unicode="&#xf5fc;" 
d="M624 96c8.7998 0 16 -7.2002 16 -16v-48c0 -52.7998 -43.2002 -96 -96 -96h-448c-52.7998 0 -96 43.2002 -96 96v48c0 8.7998 7.2002 16 16 16h48v288c0 35.2002 28.7998 64 64 64h384c35.2002 0 64 -28.7998 64 -64v-288h48zM112 384v-288h416v288
c0 8.66992 -7.33008 16 -16 16h-384c-8.66992 0 -16 -7.33008 -16 -16zM592 32v16h-180.9c-5.58008 -9.38965 -15.3799 -16 -27.0996 -16h-128c-11.7197 0 -21.5303 6.61035 -27.0996 16h-180.9v-16c0 -26.4697 21.5303 -48 48 -48h448c26.4697 0 48 21.5303 48 48z
M277.66 186.35c-6.25 -6.25 -16.3906 -6.25 -22.6406 0l-58.3398 58.3408c-6.25 6.25 -6.25 16.3799 0 22.6299l58.3398 58.3398c6.25 6.25 16.3809 6.25 22.6309 0l11.3096 -11.3105c6.25 -6.25 6.25 -16.3799 0 -22.6299l-35.71 -35.7197l35.7197 -35.71
c6.25 -6.25 6.25 -16.3799 0 -22.6299zM351.04 197.65c-6.25 6.25 -6.25 16.3799 0 22.6299l35.71 35.7197l-35.71 35.71c-6.25 6.25 -6.25 16.3799 0 22.6299l11.3096 11.3105c6.25 6.25 16.3809 6.25 22.6309 0l58.3398 -58.3408c6.25 -6.25 6.25 -16.3799 0 -22.6299
l-58.3398 -58.3398c-6.25 -6.25 -16.3809 -6.25 -22.6309 0z" />
    <glyph glyph-name="layer-group" unicode="&#xf5fd;" horiz-adv-x="512" 
d="M512 191.99c0 -12.8398 -7.53027 -24.4004 -19.1602 -29.4307l-79.6494 -34.5596l79.6797 -34.5703c11.5898 -5.01953 19.1201 -16.5801 19.1201 -29.4395c0 -12.8506 -7.54004 -24.4102 -19.1602 -29.4404l-218.25 -94.6895
c-5.90039 -2.56055 -12.25 -3.84082 -18.5898 -3.86035c-6.59473 0 -12.9053 1.39941 -18.5898 3.87988l-218.28 94.6904c-11.5898 5.00977 -19.1201 16.5801 -19.1201 29.4199c0 12.8594 7.53027 24.4199 19.1602 29.4502l79.6494 34.5596l-79.6895 34.5703
c-11.5898 5.00977 -19.1201 16.5801 -19.1201 29.4199c0 12.8594 7.53027 24.4297 19.1504 29.4502l79.6699 34.5693l-79.7002 34.5801c-11.5898 5.00977 -19.1201 16.5703 -19.1201 29.4199c0 12.8506 7.53027 24.4102 19.1602 29.4404l218.22 94.6797
c11.8398 5.16992 25.4404 5.15039 37.2803 -0.0195312l218.229 -94.6699c11.5908 -5.01074 19.1201 -16.5703 19.1201 -29.4209c0 -12.8496 -7.54004 -24.4092 -19.1602 -29.4395l-79.6592 -34.5703l79.6895 -34.5801c11.5898 -5.01953 19.1201 -16.5801 19.1201 -29.4395z
M255.47 400.11l-0.0292969 -0.0205078zM256 399.88l-184.09 -79.8701l184.62 -80.1094l183.63 80.0898zM440.19 63.96l-87.3105 37.8701l-78.29 -33.9697c-5.89941 -2.56055 -12.25 -3.84082 -18.5898 -3.86035c-6.59473 0 -12.9053 1.39941 -18.5898 3.87988l-78.29 33.96
l-87.21 -37.8398l184.62 -80.1104zM256.53 111.9l183.66 80.0596l-87.3105 37.8799l-78.29 -33.9697c-5.89941 -2.56055 -12.25 -3.83984 -18.5898 -3.86035c-6.59473 0.000976562 -12.9053 1.39941 -18.5898 3.87988l-78.2803 33.96l-87.2197 -37.8398z" />
    <glyph glyph-name="layer-minus" unicode="&#xf5fe;" horiz-adv-x="512" 
d="M496 416c8.83984 0 16 -7.16016 16 -16v-16c0 -8.83984 -7.16016 -16 -16 -16h-192c-8.83984 0 -16 7.16016 -16 16v16c0 8.83984 7.16016 16 16 16h192zM512 192c0 -12.8398 -7.53027 -24.4102 -19.1602 -29.4404l-79.6494 -34.5596l79.6797 -34.5801
c11.5898 -5.01953 19.1201 -16.5801 19.1201 -29.4395c0 -12.8506 -7.54004 -24.4102 -19.1602 -29.4404l-218.25 -94.6904c-5.90039 -2.55957 -12.25 -3.83984 -18.5898 -3.85938c-6.59473 0 -12.9053 1.39941 -18.5898 3.87988l-218.28 94.6895
c-11.5898 5.01074 -19.1201 16.5801 -19.1201 29.4209c0 12.8594 7.53027 24.4297 19.1504 29.46l79.6699 34.5596l-79.7002 34.5801c-11.5898 5.00977 -19.1201 16.5801 -19.1201 29.4199s7.53027 24.4102 19.1602 29.4404l218.25 94.6797
c11.8096 5.16016 25.3799 5.16016 37.1895 0l218.28 -94.7002c11.5898 -5.00977 19.1201 -16.5801 19.1201 -29.4199zM440.19 63.9502l-87.3008 37.8896l-78.2998 -33.9795c-5.89941 -2.56055 -12.25 -3.84082 -18.5898 -3.86035
c-6.59473 0 -12.9053 1.39941 -18.5898 3.87988l-78.2803 33.96l-87.2197 -37.8398l184.62 -80.1104zM256.53 111.89l183.63 80.0801l-184.16 79.9102l-184.09 -79.8799z" />
    <glyph glyph-name="layer-plus" unicode="&#xf5ff;" horiz-adv-x="512" 
d="M492.88 93.4199c11.5898 -5.00977 19.1201 -16.5801 19.1104 -29.4395c0 -12.8506 -7.54004 -24.4102 -19.1602 -29.4404l-218.25 -94.6904c-5.90039 -2.55957 -12.25 -3.83984 -18.5898 -3.85938c-6.59473 0 -12.9053 1.39941 -18.5898 3.87988l-218.28 94.6895
c-11.5898 5.01074 -19.1201 16.5801 -19.1201 29.4209c0 12.8594 7.53027 24.4297 19.1504 29.46l79.6699 34.5596l-79.7002 34.5801c-11.5898 5.00977 -19.1201 16.5801 -19.1201 29.4199s7.53027 24.4102 19.1602 29.4404l204.13 88.5693
c12.21 5.2002 26.3096 -0.279297 31.5898 -12.4697c5.25 -12.1504 -0.30957 -26.2803 -12.4697 -31.5596l-170.5 -73.9805l184.62 -80.1104l217.22 94.7207c12.21 5.19922 26.3096 -0.300781 31.5898 -12.4707c5.25 -12.1494 -0.30957 -26.2793 -12.4697 -31.5596
l-79.6797 -34.5801zM256.53 -16.1104l183.649 80.0703l-87.29 37.8799l-78.2998 -33.9795c-5.89941 -2.56055 -12.25 -3.84082 -18.5898 -3.84082s-12.6797 1.28027 -18.5898 3.86035l-78.2803 33.96l-87.2197 -37.8398zM496 360c8.83984 0 16 -7.16016 16 -16v-16
c0 -8.83984 -7.16016 -16 -16 -16h-72v-72c0 -8.83984 -7.16016 -16 -16 -16h-16c-8.83984 0 -16 7.16016 -16 16v72h-72c-8.83984 0 -16 7.16016 -16 16v16c0 8.83984 7.16016 16 16 16h72v72c0 8.83984 7.16016 16 16 16h16c8.83984 0 16 -7.16016 16 -16v-72h72z" />
    <glyph glyph-name="lips" unicode="&#xf600;" 
d="M631.14 252.32c10.3203 -17.1104 11.6299 -37.9902 3.89062 -56.3701c-27.9902 -66.46 -112.63 -227.95 -274.32 -227.95h-81.4297c-161.69 0 -246.33 161.49 -274.311 227.94c-7.73926 18.3896 -6.42969 39.2695 3.89062 56.3799
c51.6699 85.6895 164.83 163.68 213.42 163.68c0 0 32.5693 0 97.7197 -50c65.1504 50 97.7197 50 97.7197 50c48.5898 0 161.75 -77.9902 213.42 -163.68zM590.8 214.58c1.83984 4.37012 1.56055 9.09961 -0.759766 12.96c-46.3096 76.79 -141.9 137.01 -170.37 140.32
c-29.3203 -6.90039 -66.5498 -36.9502 -99.6699 -62.3604c-29.71 22.79 -70 55.3799 -99.6699 62.3604c-28.4297 -3.29004 -124.05 -63.5107 -170.37 -140.32c-2.33008 -3.86035 -2.59961 -8.58008 -0.759766 -12.96c25.1494 -59.71 97.8896 -198.58 230.09 -198.58h81.4297
c132.19 0 204.931 138.87 230.08 198.58zM532.97 216.76c5.5 -2.16992 6.79004 -9.22949 2.40039 -13.2002c-23.5498 -21.29 -95.3398 -75.5596 -215.37 -75.5596s-191.82 54.2695 -215.37 75.5596c-4.38965 3.9707 -3.09961 11.0303 2.41016 13.2002
c20.2402 7.99023 66.9697 23.2402 128.96 23.2402c34.5303 -8.62988 51.4697 -14 84 -14c32.8701 0 50.6396 5.66016 84 14c61.9902 0 108.72 -15.25 128.97 -23.2402z" />
    <glyph glyph-name="location-slash" unicode="&#xf603;" 
d="M633.99 -23.0195c6.91016 -5.52051 8.01953 -15.5908 2.5 -22.4902l-10 -12.4902c-5.53027 -6.88965 -15.5898 -8.00977 -22.4902 -2.49023l-598 467.51c-6.90039 5.52051 -8.01953 15.5908 -2.49023 22.4902l10 12.4902
c5.52051 6.90039 15.5898 8.00977 22.4902 2.49023zM320 336c-19.0098 0 -37.0801 -3.90039 -53.71 -10.6201l-41.5498 32.4805c21.5693 12.4092 45.4502 21.25 71.2598 24.4795v49.6602c0 8.83984 7.16016 16 16 16h16c8.83984 0 16 -7.16016 16 -16v-49.6602
c86.8096 -10.8496 155.49 -79.5303 166.34 -166.34h49.6602c8.83984 0 16 -7.16016 16 -16v-16c0 -8.83984 -7.16016 -16 -16 -16h-49.6699c-1.23047 -9.83984 -3.41016 -19.3604 -6.07031 -28.6699l-42.25 33.0303c0.900391 6.48926 1.99023 12.9199 1.99023 19.6396
c0 79.4004 -64.5996 144 -144 144zM320 48c19.0098 0 37.0801 3.90039 53.71 10.6201l41.5498 -32.4805c-21.5693 -12.4092 -45.4502 -21.25 -71.2598 -24.4795v-49.6602c0 -8.83984 -7.16016 -16 -16 -16h-16c-8.83984 0 -16 7.16016 -16 16v49.6602
c-86.7998 10.8496 -155.49 79.5303 -166.34 166.34h-49.6602c-8.83984 0 -16 7.16016 -16 16v16c0 8.83984 7.16016 16 16 16h49.6602c1.22949 9.83984 3.41992 19.3604 6.08008 28.6699l42.25 -33.0303c-0.900391 -6.47949 -1.99023 -12.9199 -1.99023 -19.6396
c0 -79.4004 64.5996 -144 144 -144z" />
    <glyph glyph-name="lungs" unicode="&#xf604;" 
d="M636.11 57.8496c2.58984 -9.68945 3.88965 -19.6396 3.91992 -29.6396c0 -52.3301 -45.6299 -92.2197 -98.0703 -92.2197c-18.0898 0 -24.46 2.87012 -86.6797 19.5498c-42.1807 11.3096 -71.2607 47.4697 -71.2607 88.6201v87.4902l48 -32v-55.4902
c0 -19.2402 14.6709 -36.6201 35.6807 -42.25c64.6094 -17.3105 64.4395 -17.9102 74.25 -17.9102c30.3096 0 57.9102 23.5703 47.79 61.4902c-20.4102 76.5801 -52.7305 149.77 -96.0605 217.51c-23.0498 36.4102 -25.3398 41 -39.6201 41
c-11.9492 0 -22.0498 -8.11035 -22.0498 -17.71v-92.1104l80 -53.3301c7.35059 -4.89941 9.33984 -14.8398 4.44043 -22.1895l-8.87988 -13.3105c-4.90039 -7.34961 -14.8398 -9.33984 -22.1904 -4.43945l-165.38 110.25l-165.37 -110.25
c-7.34961 -4.90039 -17.29 -2.91016 -22.1895 4.43945l-8.88086 13.3105c-4.89941 7.35938 -2.90918 17.29 4.44043 22.1895l80 53.3301v92.1104c0 9.59961 -10.0996 17.71 -22.0498 17.71c-14.2803 0 -16.5801 -4.58984 -39.6201 -41
c-43.3301 -67.7402 -75.6504 -140.93 -96.0498 -217.51c-10.1201 -37.9199 17.4795 -61.4902 47.79 -61.4902c9.80957 0 9.63965 0.599609 74.2598 17.9199c21.0098 5.62988 35.6797 23 35.6797 42.25v55.4902l48 32v-87.4902
c0 -41.1504 -29.0801 -77.3203 -71.2598 -88.6201c-62.2305 -16.6797 -68.5898 -19.5498 -86.6797 -19.5498c-52.4404 0 -98.0703 39.8896 -98.0703 92.2197c0 9.99023 1.2998 19.9404 3.88965 29.6299c21.6699 81.3008 56.04 159.15 102.011 231.021
c22.1191 34.5703 36.0693 63.1299 80.0498 63.1299c38.6895 0 70.0498 -29.4199 70.0498 -65.71v-60.1104l32.8799 21.9199c4.4502 2.9707 7.12012 7.95996 7.12012 13.3105v170.59c0 8.83984 7.16016 16 16 16h16c8.83984 0 16 -7.16016 16 -16v-170.59
c0 -5.55273 2.81934 -10.4414 7.12012 -13.3105l32.8799 -21.9199v60.1104c0 36.29 31.3604 65.71 70.0498 65.71c43.9805 0 57.9307 -28.5596 80.0498 -63.1299c45.9707 -71.8701 80.3408 -149.72 102.011 -231.021z" />
    <glyph glyph-name="map-marker-alt-slash" unicode="&#xf605;" 
d="M633.99 -23.0195c6.91016 -5.52051 8.01953 -15.5908 2.5 -22.4902l-10 -12.4902c-5.53027 -6.88965 -15.5898 -8.00977 -22.4902 -2.49023l-598 467.51c-6.90039 5.52051 -8.01953 15.5908 -2.49023 22.4902l10 12.4902
c5.52051 6.90039 15.5898 8.00977 22.4902 2.49023zM320 400c-38.2002 0 -72.75 -15.21 -98.5498 -39.5703l-38.2197 29.8799c34.8896 35.5303 83.3496 57.6904 136.77 57.6904c105.6 0 192 -86.4004 192 -192c0 -36.9502 -6.09961 -61.46 -28.6504 -100.32
l-38.2295 29.8906c15.9502 28.8096 18.8799 45.3594 18.8799 70.4297c0 79.4004 -64.5996 144 -144 144zM285.77 310.15c9.86035 6.16992 21.5205 9.84961 34.2305 9.84961c35.8398 0 64 -28.1602 64 -64c0 -7.05957 -1.37012 -13.6797 -3.40039 -19.9902zM359.41 57.9102
c1.89941 2.7002 3.55957 5.05957 5.39941 7.66992l37.8604 -29.5996c-18.1797 -25.79 -39.0098 -55.2803 -63.4697 -90.3809c-4.7998 -6.39941 -12 -9.59961 -19.2002 -9.59961s-14.4004 3.2002 -19.2002 9.59961c-143.62 206.061 -171.399 232.53 -172.67 305.021
l56.5303 -44.2002c11.5098 -28.1797 37.6602 -65.9102 95.9297 -148.51c11.9004 -16.8701 25 -35.4297 39.4102 -55.9902c14.4102 20.5498 27.5098 39.1201 39.4102 55.9902z" />
    <glyph glyph-name="map-marker-check" unicode="&#xf606;" horiz-adv-x="384" 
d="M192 448c105.6 0 192 -86.4004 192 -192c0 -76.7998 -25.5996 -99.2002 -172.8 -310.4c-4.7998 -6.39941 -12 -9.59961 -19.2002 -9.59961s-14.4004 3.2002 -19.2002 9.59961c-147.2 211.2 -172.8 233.601 -172.8 310.4c0 105.6 86.4004 192 192 192zM192 1.91016
c14.4102 20.5596 27.5098 39.1299 39.4102 56c94.2402 133.609 104.59 149.89 104.59 198.09c0 79.4004 -64.5996 144 -144 144s-144 -64.5996 -144 -144c0 -48.2002 10.3496 -64.4805 104.59 -198.1c11.9004 -16.8701 25 -35.4307 39.4102 -55.9902zM291.93 294.23
c3.85059 -3.87012 3.82031 -10.1309 -0.0595703 -13.9707l-117.78 -116.83c-3.87012 -3.83984 -10.1299 -3.81934 -13.9795 0.0605469l-68.0508 68.5996c-3.83984 3.87012 -3.81934 10.1299 0.0605469 13.9805l23.3994 23.21
c3.87012 3.83984 10.1406 3.81934 13.9805 -0.0605469l37.8799 -38.1895l87.3604 86.6602c3.87012 3.83984 10.1299 3.81934 13.9795 -0.0605469z" />
    <glyph glyph-name="map-marker-edit" unicode="&#xf607;" horiz-adv-x="384" 
d="M192 448c105.6 0 192 -86.4004 192 -192c0 -76.7998 -25.5996 -99.2002 -172.8 -310.4c-4.7998 -6.39941 -12 -9.59961 -19.2002 -9.59961s-14.4004 3.2002 -19.2002 9.59961c-147.2 211.2 -172.8 233.601 -172.8 310.4c0 105.6 86.4004 192 192 192zM192 1.91016
c14.4102 20.5596 27.5098 39.1299 39.4102 56c94.2402 133.609 104.59 149.89 104.59 198.09c0 79.4004 -64.5996 144 -144 144s-144 -64.5996 -144 -144c0 -48.2002 10.3496 -64.4805 104.59 -198.1c11.9004 -16.8701 25 -35.4307 39.4102 -55.9902zM113.59 233.57
l67.1104 67.1094l47.9795 -47.9795l-67.1094 -67.1104l-42.8301 -4.7998c-5.77051 -0.620117 -10.5703 4.26953 -9.9502 9.9502zM247.43 342l22.5703 -22.5703c7.01953 -7.01953 7.01953 -18.3896 0 -25.4102l-18.7002 -18.6992l-47.9795 47.9795l18.6992 18.7002
c7.02051 7.01953 18.3906 7.01953 25.4102 0z" />
    <glyph glyph-name="map-marker-exclamation" unicode="&#xf608;" horiz-adv-x="384" 
d="M192 448c105.6 0 192 -86.4004 192 -192c0 -76.7998 -25.5996 -99.2002 -172.8 -310.4c-4.7998 -6.39941 -12 -9.59961 -19.2002 -9.59961s-14.4004 3.2002 -19.2002 9.59961c-147.2 211.2 -172.8 233.601 -172.8 310.4c0 105.6 86.4004 192 192 192zM192 1.91016
c14.4102 20.5596 27.5098 39.1299 39.4102 56c94.2402 133.609 104.59 149.89 104.59 198.09c0 79.4004 -64.5996 144 -144 144s-144 -64.5996 -144 -144c0 -48.2002 10.3496 -64.4805 104.59 -198.1c11.9004 -16.8701 25 -35.4307 39.4102 -55.9902zM192 192
c17.6699 0 32 -14.3301 32 -32s-14.3301 -32 -32 -32s-32 14.3301 -32 32s14.3301 32 32 32zM220.72 352c10.0205 0 17.5703 -9.09961 15.7305 -18.9502l-18 -96c-1.41992 -7.56934 -8.03027 -13.0498 -15.7305 -13.0498h-21.4395l-0.00390625 0.0136719
c-7.81836 0 -14.335 5.61914 -15.7266 13.0361l-18 96c-1.83984 9.85059 5.70996 18.9502 15.7305 18.9502h57.4395z" />
    <glyph glyph-name="map-marker-minus" unicode="&#xf609;" horiz-adv-x="384" 
d="M192 448c105.6 0 192 -86.4004 192 -192c0 -76.7998 -25.5996 -99.2002 -172.8 -310.4c-4.7998 -6.39941 -12 -9.59961 -19.2002 -9.59961s-14.4004 3.2002 -19.2002 9.59961c-147.2 211.2 -172.8 233.601 -172.8 310.4c0 105.6 86.4004 192 192 192zM192 1.91016
c14.4102 20.5596 27.5098 39.1299 39.4102 56c94.2402 133.609 104.59 149.89 104.59 198.09c0 79.4004 -64.5996 144 -144 144s-144 -64.5996 -144 -144c0 -48.2002 10.3496 -64.4805 104.59 -198.09c11.9004 -16.8701 25 -35.4404 39.4102 -56zM272 280
c8.83984 0 16 -7.16016 16 -16v-16c0 -8.83984 -7.16016 -16 -16 -16h-160c-8.83984 0 -16 7.16016 -16 16v16c0 8.83984 7.16016 16 16 16h160z" />
    <glyph glyph-name="map-marker-plus" unicode="&#xf60a;" horiz-adv-x="384" 
d="M192 448c105.6 0 192 -86.4004 192 -192c0 -76.7998 -25.5996 -99.2002 -172.8 -310.4c-4.7998 -6.39941 -12 -9.59961 -19.2002 -9.59961s-14.4004 3.2002 -19.2002 9.59961c-147.2 211.2 -172.8 233.601 -172.8 310.4c0 105.6 86.4004 192 192 192zM192 1.91016
c14.4102 20.5596 27.5098 39.1299 39.4102 56c94.2402 133.609 104.59 149.89 104.59 198.09c0 79.4004 -64.5996 144 -144 144s-144 -64.5996 -144 -144c0 -48.2002 10.3496 -64.4805 104.59 -198.09c11.9004 -16.8701 25 -35.4404 39.4102 -56zM272 280
c8.83984 0 16 -7.16016 16 -16v-16c0 -8.83984 -7.16016 -16 -16 -16h-56v-56c0 -8.83984 -7.16016 -16 -16 -16h-16c-8.83984 0 -16 7.16016 -16 16v56h-56c-8.83984 0 -16 7.16016 -16 16v16c0 8.83984 7.16016 16 16 16h56v56c0 8.83984 7.16016 16 16 16h16
c8.83984 0 16 -7.16016 16 -16v-56h56z" />
    <glyph glyph-name="map-marker-question" unicode="&#xf60b;" horiz-adv-x="384" 
d="M192 448c105.6 0 192 -86.4004 192 -192c0 -76.7998 -25.5996 -99.2002 -172.8 -310.4c-4.7998 -6.39941 -12 -9.59961 -19.2002 -9.59961s-14.4004 3.2002 -19.2002 9.59961c-147.2 211.2 -172.8 233.601 -172.8 310.4c0 105.6 86.4004 192 192 192zM192 1.91016
c14.4102 20.5596 27.5098 39.1299 39.4102 56c94.2402 133.609 104.59 149.89 104.59 198.09c0 79.4004 -64.5996 144 -144 144s-144 -64.5996 -144 -144c0 -48.2002 10.3496 -64.4805 104.59 -198.1c11.9004 -16.8701 25 -35.4307 39.4102 -55.9902zM194.67 360
c55.0801 0 88 -44.75 88 -88c0 -40.9502 -32.75 -62.46 -64 -78.7305v-1.42969c0 -8.75 -7.08984 -15.8398 -15.8398 -15.8398h-16.3203c-8.75 0 -15.8398 7.08984 -15.8398 15.8398v16.1602c0 9.09961 5.19043 17.4297 13.3301 21.5
c30.5996 15.3096 50.6699 26.54 50.6699 42.5c0 19.3896 -14.0195 40 -40 40c-17.9297 0 -33.1299 -11.8496 -38.2002 -28.1201c-2.13965 -6.88965 -8.10938 -11.8799 -15.3301 -11.8799h-16.8398c-10.2402 0 -17.7197 9.55957 -15.4395 19.5498
c8.90918 39.1504 44 68.4502 85.8096 68.4502zM192 160c17.6699 0 32 -14.3301 32 -32s-14.3301 -32 -32 -32s-32 14.3301 -32 32s14.3301 32 32 32z" />
    <glyph glyph-name="map-marker-slash" unicode="&#xf60c;" 
d="M633.99 -23.0195c6.91016 -5.52051 8.01953 -15.5908 2.5 -22.4902l-10 -12.4902c-5.53027 -6.88965 -15.5898 -8.00977 -22.4902 -2.49023l-598 467.51c-6.90039 5.52051 -8.01953 15.5908 -2.49023 22.4902l10 12.4902
c5.52051 6.90039 15.5898 8.00977 22.4902 2.49023zM320 400c-38.2002 0 -72.75 -15.21 -98.5498 -39.5703l-38.2197 29.8799c34.8896 35.5303 83.3496 57.6904 136.77 57.6904c105.6 0 192 -86.4004 192 -192c0 -36.9502 -6.09961 -61.46 -28.6504 -100.32
l-38.2295 29.8906c15.9502 28.8096 18.8799 45.3594 18.8799 70.4297c0 79.4004 -64.5996 144 -144 144zM359.41 57.9102c1.89941 2.7002 3.55957 5.05957 5.39941 7.66992l37.8701 -29.5996c-18.1895 -25.79 -39.0195 -55.2803 -63.4795 -90.3809
c-4.7998 -6.39941 -12 -9.59961 -19.2002 -9.59961s-14.4004 3.2002 -19.2002 9.59961c-143.62 206.061 -171.399 232.53 -172.67 305.021l56.5303 -44.2002c11.5098 -28.1797 37.6602 -65.9102 95.9297 -148.51c11.9004 -16.8701 25 -35.4297 39.4102 -55.9902
c14.4102 20.5498 27.5098 39.1201 39.4102 55.9902z" />
    <glyph glyph-name="map-marker-smile" unicode="&#xf60d;" horiz-adv-x="384" 
d="M192 448c105.6 0 192 -86.4004 192 -192c0 -76.7998 -25.5996 -99.2002 -172.8 -310.4c-4.7998 -6.39941 -12 -9.59961 -19.2002 -9.59961s-14.4004 3.2002 -19.2002 9.59961c-147.2 211.2 -172.8 233.601 -172.8 310.4c0 105.6 86.4004 192 192 192zM192 1.91016
c14.4102 20.5596 27.5098 39.1299 39.4102 56c94.2402 133.609 104.59 149.89 104.59 198.09c0 79.4004 -64.5996 144 -144 144s-144 -64.5996 -144 -144c0 -48.2002 10.3496 -64.4805 104.59 -198.1c11.9004 -16.8701 25 -35.4307 39.4102 -55.9902zM136 272
c-13.25 0 -24 10.75 -24 24c0 13.2598 10.75 24 24 24s24 -10.7402 24 -24c0 -13.25 -10.75 -24 -24 -24zM248 272c-13.25 0 -24 10.75 -24 24c0 13.2598 10.75 24 24 24s24 -10.7402 24 -24c0 -13.25 -10.75 -24 -24 -24zM238 220.77
c8.80957 9.96094 23.9697 10.8701 33.8799 2.13086c9.92969 -8.77051 10.9004 -23.9404 2.12012 -33.8809c-20.75 -23.5195 -50.6201 -37.0195 -82 -37.0195c-31.3096 0 -61.2197 13.4805 -82 37c-8.75 9.94043 -7.82031 25.0996 2.08984 33.8799
c9.96973 8.75 25.1006 7.88965 33.9102 -2.08984c23.3096 -26.4102 68.75 -26.4004 92 -0.0205078z" />
    <glyph glyph-name="map-marker-times" unicode="&#xf60e;" horiz-adv-x="384" 
d="M192 448c105.6 0 192 -86.4004 192 -192c0 -76.7998 -25.5996 -99.2002 -172.8 -310.4c-4.7998 -6.39941 -12 -9.59961 -19.2002 -9.59961s-14.4004 3.2002 -19.2002 9.59961c-147.2 211.2 -172.8 233.601 -172.8 310.4c0 105.6 86.4004 192 192 192zM192 1.91016
c14.4102 20.5596 27.5098 39.1299 39.4102 56c94.2402 133.609 104.59 149.89 104.59 198.09c0 79.4004 -64.5996 144 -144 144s-144 -64.5996 -144 -144c0 -48.2002 10.3496 -64.4805 104.59 -198.09c11.9004 -16.8701 25 -35.4404 39.4102 -56zM265.54 318.23
c6.25 -6.25 6.25 -16.3809 0 -22.6309l-39.5996 -39.5996l39.5996 -39.5996c6.25 -6.25 6.25 -16.3809 0 -22.6309l-11.3096 -11.3096c-6.25 -6.25 -16.3809 -6.25 -22.6309 0l-39.5996 39.5996l-39.5996 -39.5996c-6.25 -6.25 -16.3809 -6.25 -22.6309 0l-11.3096 11.3096
c-6.25 6.25 -6.25 16.3809 0 22.6309l39.5996 39.5996l-39.5996 39.5996c-6.25 6.25 -6.25 16.3809 0 22.6309l11.3096 11.3096c6.25 6.25 16.3809 6.25 22.6309 0l39.5996 -39.5996l39.5996 39.5996c6.25 6.25 16.3809 6.25 22.6309 0z" />
    <glyph glyph-name="microscope" unicode="&#xf610;" horiz-adv-x="512" 
d="M476 -16c19.8799 0 36 -16.1201 36 -36c0 -6.62988 -5.37012 -12 -12 -12h-488c-6.62988 0 -12 5.37012 -12 12c0 19.8799 16.1201 36 36 36h275.99c75 0 136 61.0195 136 136c0 72.2402 -56.79 130.96 -128 135.19v-102.051
c0 -22.0195 -14.5605 -40.71 -34.5605 -46.9395v-37.6201c0 -20.1699 -16.3994 -36.5801 -36.5898 -36.5801h-81.6895c-20.1807 0 -36.5908 16.4102 -36.5908 36.5801v37.6201c-20 6.24023 -34.5596 24.9199 -34.5596 46.9395v197.721
c0 18.3896 10.1602 34.4492 25.1602 42.8701v17.6895c0 20.1699 16.3994 36.5801 36.5596 36.5801h100.561c20.1602 0 36.5596 -16.4102 36.5596 -36.5801v-17.6797c15 -8.43066 25.1602 -24.4902 25.1602 -42.8799v-47.2607c97.7402 -4.23926 176 -84.8496 176 -183.6
c0 -53.9004 -23.4404 -102.32 -60.5 -136h40.5zM178.56 80h58.8809v40h-58.8809v-40zM270.84 152l1.16016 200h-24l-1.15039 48h-77.6895v-48h-24l-1.16016 -198.86l1.16016 -1.13965h125.68z" />
    <glyph glyph-name="oil-temp" unicode="&#xf614;" 
d="M16 48c-8.83984 0 -16 7.16992 -16 16v16c0 8.83984 7.16016 16 16 16h16c26.04 0 45.7998 8.41992 56.0703 17.8896c8.89941 8.20996 19.6602 14.1006 31.7695 14.1006h16.2998c12.1104 0 22.8701 -5.89062 31.7705 -14.1006
c5.38965 -4.96973 13.5303 -9.55957 23.6797 -12.8896c6.73047 -20.0801 17.46 -38.3096 32.0703 -52.9805c-38.4805 0.0800781 -72.4502 12.2207 -95.6602 31.8203c-23.2803 -19.6494 -57.3799 -31.8398 -96 -31.8398h-16zM624 96c8.83984 0 16 -7.16016 15.9805 -15.9902
v-16c0 -8.83984 -7.16016 -16 -16 -16h-16c-38.6201 0 -72.7207 12.1807 -96 31.8398c-23.2109 -19.5996 -57.1807 -31.75 -95.6602 -31.8193c14.6094 14.6699 25.3398 32.8994 32.0693 52.9795c10.1504 3.32031 18.29 7.91992 23.6807 12.8906
c8.89941 8.20996 19.6602 14.0996 31.7695 14.0996h16.2998c12.1104 0 22.8701 -5.88965 31.7705 -14.0996c10.29 -9.48047 30.0498 -17.9004 56.0898 -17.9004h16zM624 -16c8.83984 0 16 -7.16016 16 -16v-16c0 -8.83984 -7.16016 -16 -16 -16h-16
c-38.6201 0 -72.7197 12.1797 -96 31.8398c-23.2803 -19.6494 -57.3799 -31.8398 -96 -31.8398s-72.7197 12.1797 -96 31.8398c-23.2803 -19.6494 -57.3799 -31.8398 -96 -31.8398s-72.7197 12.1797 -96 31.8398c-23.2803 -19.6494 -57.3799 -31.8398 -96 -31.8398h-16
c-8.83984 0 -16 7.16016 -16 16v16c0 8.83984 7.16016 16 16 16h16c26.04 0 45.7998 8.41992 56.0703 17.9004c8.89941 8.20996 19.6602 14.0996 31.7695 14.0996h16.2998c12.1104 0 22.8701 -5.88965 31.7705 -14.0996c10.29 -9.48047 30.0498 -17.9004 56.0898 -17.9004
s45.7998 8.41992 56.0898 17.9004c3.81055 3.50977 8.03027 6.45996 12.4902 8.84961c8.84961 -1.82031 18.0303 -2.76953 27.4199 -2.76953s18.5596 0.959961 27.4199 2.76953c4.55664 -2.42285 8.72559 -5.38281 12.4902 -8.84961
c10.29 -9.48047 30.0498 -17.9004 56.0898 -17.9004s45.7998 8.41992 56.0703 17.9004c8.89941 8.20996 19.6602 14.0996 31.7695 14.0996h16.2998c12.1104 0 22.8701 -5.88965 31.7705 -14.0996c10.29 -9.48047 30.0498 -17.9004 56.0898 -17.9004h16zM320 47.9902
c-52.9404 0 -96 43.0596 -96 96.0098c0 44.5996 30.71 81.8604 72 92.5898v195.41c0 8.83984 7.16016 16 16 16h88c8.83984 0 16 -7.16016 16 -16v-16c0 -8.83984 -7.16016 -16 -16 -16h-56v-48h56c8.83984 0 16 -7.16016 16 -16v-16c0 -8.83984 -7.16016 -16 -16 -16h-56
v-67.4199c41.29 -10.7305 72 -47.9902 72 -92.5898c0 -52.9404 -43.0596 -96 -96 -96zM320 191.99c-26.4697 0 -48 -21.5303 -48 -48c0 -26.4707 21.5303 -48 48 -48s48 21.5293 48 48c0 26.4697 -21.5303 48 -48 48z" />
    <glyph glyph-name="parking-slash" unicode="&#xf617;" 
d="M633.99 -23.0195c6.91016 -5.52051 8.01953 -15.5908 2.5 -22.4902l-10 -12.4902c-5.53027 -6.88965 -15.5898 -8.00977 -22.4902 -2.49023l-598 467.51c-6.90039 5.52051 -8.01953 15.5908 -2.49023 22.4902l10 12.4902
c5.52051 6.90039 15.5898 8.00977 22.4902 2.49023zM283.31 312.07h44.7305c48.54 0 88.0195 -39.4805 88.0195 -88.0205c0 -5 -0.679688 -9.83008 -1.47949 -14.6094zM490 368h-278.23l-61.3994 48h345.63c26.5 0 48 -21.5 48 -48v-259.74l-48 37.5303v216.21
c0 3.2998 -2.7002 6 -6 6zM150 16h278.23l61.3994 -48h-345.63c-26.5 0 -48 21.5 -48 48v259.74l48 -37.5303v-216.21c0 -3.2998 2.7002 -6 6 -6zM264.03 64.0195l-16.0107 -0.00976562c-8.83984 0 -16 7.16016 -16 16v89.3701l48.0107 -37.5303v-51.8301
c0 -8.8291 -7.16016 -16 -16 -16z" />
    <glyph glyph-name="pencil-paintbrush" unicode="&#xf618;" horiz-adv-x="512" 
d="M433.43 82.6504c2.65039 -6.99023 9 -11.2305 16.4199 -11.2305c12.4902 0 51.1406 31.1299 62.1504 38.6504c0 -92.6504 -42.6699 -174.07 -144 -174.07c-107.74 0 -135.91 67.9805 -141.91 112.89l-93.7197 -93.7197l-107.45 -18.8398
c-1.26953 -0.219727 -2.50977 -0.330078 -3.74023 -0.330078c-12.8398 0 -23.1602 11.6699 -20.8496 24.9004l18.75 107.439l114.18 114.15l-110.42 121.45c-58.2803 64.0293 5.87988 144.05 70.6406 144.05c23.3896 0 46.8594 -10.4404 64.6699 -35.8506l82.0596 -122.71
l139.86 139.83c12.4893 12.4902 28.8701 18.7402 45.25 18.7402c16.3701 0 32.75 -6.25 45.25 -18.7402l22.6797 -22.6797c25 -24.9902 25 -65.5205 0.00976562 -90.5098l-153.76 -153.761c38.9199 -5.8291 73.3701 -25.4697 93.9297 -79.6592zM414 395.32
l-51.6904 -51.6904l45.3105 -45.3096l51.6895 51.6895c6.66016 6.66016 5.81055 16.8301 0 22.6299l-22.6797 22.6807c-6.64941 6.63965 -16.8096 5.81934 -22.6299 0zM58.3301 336.25l108.9 -119.78l38.3691 38.3604l-87.3496 130.63
c-9.08008 12.9297 -18.5195 14.5303 -24.7803 14.5303c-16.3994 0 -35.5693 -13.1699 -42.7197 -29.3506c-5.36035 -12.1299 -3.03027 -22.7393 7.58008 -34.3896zM109.14 -0.169922l264.551 264.55l-45.3105 45.3105l-264.62 -264.561l-9.58984 -54.9395zM368 -16
c38.5996 0 62.0303 16.8701 76.0596 39.6699c-25.0693 2.15039 -46.4893 18.1396 -55.5195 41.9805c-14.9902 39.5098 -36.1201 48.4199 -67.5303 50.4395l-26.0596 1.67969l-19.9307 -19.9297l-2.20996 -21.2998c-1.15918 -11.1504 0.200195 -44.9199 20.1309 -67.0303
c15.2598 -16.9297 40.5195 -25.5098 75.0596 -25.5098z" />
    <glyph glyph-name="poop" unicode="&#xf619;" horiz-adv-x="512" 
d="M481.81 116.85c18.8301 -19.2295 30.1904 -45.5293 30.1904 -74.3496c0 -58.7197 -47.7803 -106.5 -106.5 -106.5h-299c-58.7197 0 -106.5 47.7803 -106.5 106.5c0 28.8203 11.3604 55.1201 30.1904 74.3496c-2.75 9.5 -4.19043 19.46 -4.19043 29.6504
c0 38.9004 20.96 72.9902 52.1797 91.5801c-0.120117 1.95996 -0.179688 3.93945 -0.179688 5.91992c0 55.1396 44.8604 100 100 100h13c9.37012 0 17 7.62988 17 17c0 3.45996 -1.09961 6.75 -3.26953 9.78027c-5.64844 7.87305 -8.97949 17.5986 -8.97949 28.0186
c0 6.53613 1.30859 12.7695 3.67871 18.4512c6.30078 15.1025 20.125 26.2764 36.7607 28.9199c5.5791 0.879883 12.1797 1.83008 19.8096 1.83008c66.1396 0 120.54 -51.2197 125.61 -116.08c31.1797 -16.9502 52.3896 -50 52.3896 -87.9199
c0 -1.98047 -0.0595703 -3.9502 -0.179688 -5.91992c31.2197 -18.5898 52.1797 -52.6797 52.1797 -91.5801c0 -10.1904 -1.42969 -20.1504 -4.19043 -29.6504zM405.5 -16c32.3096 0 58.5 26.1904 58.5 58.5c0 29.1504 -21.3799 53.1201 -49.2695 57.5703
c14.0498 10.6895 23.2695 27.4102 23.2695 46.4297c0 32.3096 -26.1904 58.5 -58.5 58.5h-11.4404c10.9102 9.53027 17.9404 23.3799 17.9404 39c0 28.7197 -23.2803 52 -52 52h-4.78027c2.91016 8.16992 4.78027 16.8301 4.78027 26c0 43.0801 -34.9199 78 -78 78
c-4.2002 0 -8.25 -0.599609 -12.2695 -1.24023c7.64941 -10.6602 12.2695 -23.6396 12.2695 -37.7598c0 -35.9004 -29.0996 -65 -65 -65h-13c-28.7197 0 -52 -23.2803 -52 -52c0 -15.6201 7.04004 -29.4697 17.9404 -39h-11.4404c-32.3096 0 -58.5 -26.1904 -58.5 -58.5
c0 -19.0195 9.21973 -35.7402 23.2695 -46.4297c-27.8896 -4.4502 -49.2695 -28.4199 -49.2695 -57.5703c0 -32.3096 26.1904 -58.5 58.5 -58.5h299z" />
    <glyph glyph-name="ruler-triangle" unicode="&#xf61c;" horiz-adv-x="512" 
d="M501.65 -4.08008c22.1094 -22.1201 6.44922 -59.9199 -24.8203 -59.9199h-441.73c-19.3896 0 -35.0996 15.71 -35.0996 35.0996v441.73c0 21.1602 17.3096 35.1699 35.3496 35.1699c8.62012 0 17.4102 -3.2002 24.5605 -10.3496zM48 -16h397.68l-63.0801 63.0801
l-11.3096 -11.3105c-6.25 -6.25 -16.3799 -6.25 -22.6299 0l-11.3105 11.3105c-6.25 6.25 -6.25 16.3799 0 22.6299l11.3105 11.3096l-45.25 45.2607l-11.3105 -11.3105c-6.25 -6.25 -16.3799 -6.25 -22.6299 0l-11.3096 11.3105c-6.25 6.25 -6.25 16.3799 0 22.6299
l11.3096 11.3096l-45.25 45.25l-11.3096 -11.3096c-6.25 -6.25 -16.3799 -6.25 -22.6299 0l-11.3105 11.3096c-6.25 6.25 -6.25 16.3799 0 22.6299l11.3105 11.3105l-45.2607 45.25l-11.3096 -11.3105c-6.25 -6.25 -16.3799 -6.25 -22.6299 0l-11.3105 11.3105
c-6.25 6.25 -6.25 16.3799 0 22.6299l11.3105 11.3096l-63.0801 63.0801v-397.68zM128 64v124.54l124.54 -124.54h-124.54z" />
    <glyph glyph-name="scalpel" unicode="&#xf61d;" horiz-adv-x="544" 
d="M509.82 434.18c39.3896 -28.0996 45.3799 -83.6396 14.6094 -119.58l-162.18 -189.52c-7.11035 -8.31055 -17.5 -13.0898 -28.4297 -13.0898h-10.3203c-7.4502 -30.79 -23.5303 -59.5 -49.46 -80.75c-0.230469 -0.180664 -0.459961 -0.370117 -0.69043 -0.560547
c-74.5898 -60.5596 -171.6 -94.6797 -272.97 -94.6797h-0.379883l166.94 182.11c-6.20996 6.48926 -8.06055 16.8301 -1.27051 24.7695l235.08 274.7c16.6504 19.46 41.0195 30.4199 65.2402 30.4199c15.3398 0 30.6201 -4.40039 43.8301 -13.8203zM243.09 67.9502
c14.1406 11.5898 24.6299 26.7695 30.8506 44.0498h-47.4902l-98.1006 -107.02c41.9307 14.2295 80.8604 35.46 114.74 62.9697zM487.96 345.81c6.19043 7.23047 8.95996 16.4902 7.79004 26.0703c-0.669922 5.46973 -3.34961 15.7705 -13.7998 23.2197
c-4.56055 3.25 -9.93066 4.90039 -15.96 4.90039c-10.5605 0 -21.5801 -5.21973 -28.7705 -13.6299l-193.72 -226.37h85.4404z" />
    <glyph glyph-name="scalpel-path" unicode="&#xf61e;" 
d="M509.82 434.18c39.3896 -28.0996 45.3799 -83.6396 14.6094 -119.58l-162.18 -189.52c-7.11035 -8.31055 -17.5 -13.0898 -28.4297 -13.0898h-10.3203c-7.4502 -30.79 -23.5303 -59.5 -49.46 -80.75c-0.230469 -0.180664 -0.459961 -0.370117 -0.69043 -0.560547
c-74.5898 -60.5596 -171.6 -94.6797 -272.97 -94.6797h-0.379883l166.94 182.11c-6.20996 6.48926 -8.06055 16.8301 -1.27051 24.7695l235.08 274.7c16.6504 19.46 41.0195 30.4199 65.2402 30.4199c15.3398 0 30.6201 -4.40039 43.8301 -13.8203zM243.09 67.9502
c14.1406 11.5898 24.6299 26.7695 30.8506 44.0498h-47.4902l-98.1006 -107.02c41.9307 14.2295 80.8604 35.46 114.74 62.9697zM487.96 345.81c6.19043 7.23047 8.95996 16.4902 7.79004 26.0703c-0.669922 5.46973 -3.34961 15.7705 -13.7998 23.2197
c-4.56055 3.25 -9.93066 4.90039 -15.96 4.90039c-10.5605 0 -21.5801 -5.21973 -28.7705 -13.6299l-193.72 -226.37h85.4404zM488 -16c4.41992 0 8 -3.58008 8 -8v-32c0 -4.41992 -3.58008 -8 -8 -8h-80c-4.41992 0 -8 3.58008 -8 8v32c0 4.41992 3.58008 8 8 8h80z
M344 -16c4.41992 0 8 -3.58008 8 -8v-32c0 -4.41992 -3.58008 -8 -8 -8h-80c-4.41992 0 -8 3.58008 -8 8v32c0 4.41992 3.58008 8 8 8h80zM632 -16c4.41992 0 8 -3.58008 8 -8v-32c0 -4.41992 -3.58008 -8 -8 -8h-80c-4.41992 0 -8 3.58008 -8 8v32c0 4.41992 3.58008 8 8 8
h80z" />
    <glyph glyph-name="skeleton" unicode="&#xf620;" horiz-adv-x="512" 
d="M496 288c8.83984 0 16 -7.16016 16 -16v-16c0 -8.83984 -7.16016 -16 -16 -16h-216v-48h152c8.83984 0 16 -7.16016 16 -16v-16c0 -8.83984 -7.16016 -16 -16 -16h-152v-48h120.01c44.1807 0 80 -35.8203 80 -80s-35.8193 -80 -80 -80c-44.1797 0 -80 35.8203 -80 80
c0 11.3896 2.45996 22.1904 6.75 32h-141.51c4.29004 -9.80957 6.75 -20.6104 6.75 -32c0 -44.1797 -35.8203 -80 -80 -80s-80 35.8203 -80 80s35.8203 80 80 80h120v48h-152c-8.83984 0 -16 7.16016 -16 16v16c0 8.83984 7.16016 16 16 16h152v48h-216
c-8.83984 0 -16 7.16016 -16 16v16c0 8.83984 7.16016 16 16 16h216v48h-152c-8.83984 0 -16 7.16016 -16 16v16c0 8.83984 7.16016 16 16 16h152v48c0 8.83984 7.16016 16 16 16h16c8.83984 0 16 -7.16016 16 -16v-48h152c8.83984 0 16 -7.16016 16 -16v-16
c0 -8.83984 -7.16016 -16 -16 -16h-152v-48h216zM144 16c0 17.6396 -14.3604 32 -32 32s-32 -14.3604 -32 -32s14.3604 -32 32 -32s32 14.3604 32 32zM432 16c0 17.6396 -14.3604 32 -32 32s-32 -14.3604 -32 -32s14.3604 -32 32 -32s32 14.3604 32 32z" />
    <glyph glyph-name="star-of-life" unicode="&#xf621;" horiz-adv-x="512" 
d="M288 -64h-64c-22.0596 0 -40 17.9404 -40 40v92.3604l-90.9297 -46.8301c-19.0605 -10.7998 -43.6504 -4.27051 -54.8105 14.5l-32.71 55.4893c-5.5 9.31055 -6.96973 20.1406 -4.16016 30.5303c2.81055 10.4404 9.59082 19.1104 19.0605 24.4404l80.5898 45.5098
l-80.6504 45.5498c-9.40918 5.2998 -16.1895 13.9697 -19 24.4102c-2.80957 10.3896 -1.33984 21.2197 4.12012 30.5l32.75 55.4697c11.1602 18.8105 35.7207 25.3105 54.8105 14.5303l90.9297 -46.8096v92.3496c0 22.0596 17.9404 40 40 40h64
c22.0596 0 40 -17.9404 40 -40v-92.3604l90.9297 46.8301c19.0898 10.7803 43.6504 4.28027 54.8105 -14.5l32.7197 -55.4795c5.5 -9.31055 6.96973 -20.1406 4.16016 -30.5303c-2.81055 -10.4404 -9.58984 -19.1104 -19.0605 -24.4404l-80.5996 -45.5195l80.5898 -45.5195
c9.46973 -5.33008 16.25 -14 19.0605 -24.4404c2.80957 -10.3896 1.33984 -21.2197 -4.12012 -30.5l-32.75 -55.4697c-11.1201 -18.8105 -35.6807 -25.3398 -54.8105 -14.5303l-90.9297 46.8096v-92.3496c-0.00976562 -22.0596 -17.9404 -40 -40 -40zM232 -16h48v166.58
l156.21 -83.6699l24.6504 41.7803l-155.521 83.3096l155.521 83.3096l-24.6504 41.7803l-156.21 -83.6699v166.58h-48v-166.58l-156.2 83.6699l-24.6494 -41.7803l155.51 -83.3096l-155.521 -83.3096l24.6504 -41.7803l156.21 83.6699v-166.58z" />
    <glyph glyph-name="stomach" unicode="&#xf623;" horiz-adv-x="512" 
d="M397.91 351.25c66 -7.04004 114.09 -66.4805 114.09 -132.85v-87.1807c0 -117.45 -104.25 -211.01 -225.09 -192.979c-36.0205 5.37012 -69.4199 22.1299 -97.6797 45.0898l-37.2402 30.25c-39.8906 32.4004 -103.15 6.97949 -103.98 -44.4004
c-0.00976562 -0.389648 -0.00976562 -0.779297 -0.00976562 -1.17969v-16c0 -8.83984 -7.16016 -16 -16 -16h-16c-8.83984 0 -16 7.16016 -16 16v16c0 66.2695 53.7305 120 120 120h64c39.7598 0 72 32.2402 72 72v64c0 2.74023 0.639648 5.2998 0.80957 8h-0.80957
c-66.2695 0 -120 53.7305 -120 120v80c0 8.83984 7.16016 16 16 16h16c8.83984 0 16 -7.16016 16 -16v-80c0 -39.7598 32.2402 -72 72 -72h13.4502c22.75 46.3096 72.1797 77.2598 128.46 71.25zM316.78 -16c65.6299 0 120.689 43.4502 139.64 102.86
c-4.4502 -0.450195 -8.88965 -1.16016 -13.3604 -1.16016c-26.8398 0 -53.4395 7.96973 -73.5293 23.1396c-18.6807 14.1104 -48.75 17.5898 -73.0605 8.46973l-0.259766 0.69043c-15.8496 -42.2002 -54.6396 -73.2598 -101.24 -77.5l28.9707 -23.5498
c26.1797 -21.25 59.1494 -32.9502 92.8398 -32.9502zM464 136.89v87.1104c0 44.1104 -35.8799 80 -80 80s-80 -35.8896 -80 -80v-55.5596c33.4697 5.3291 69.1104 -2.13086 94.4697 -21.2803c16.8398 -12.7598 42.79 -16.2998 65.5303 -10.2705z" />
    <glyph glyph-name="tachometer-alt-average" unicode="&#xf624;" horiz-adv-x="576" 
d="M176 272c17.6699 0 32 -14.3301 32 -32s-14.3301 -32 -32 -32s-32 14.3301 -32 32s14.3301 32 32 32zM128 160c17.6699 0 32 -14.3301 32 -32s-14.3301 -32 -32 -32s-32 14.3301 -32 32s14.3301 32 32 32zM432 240c0 -17.6699 -14.3301 -32 -32 -32s-32 14.3301 -32 32
s14.3301 32 32 32s32 -14.3301 32 -32zM416 128c0 17.6699 14.3301 32 32 32s32 -14.3301 32 -32s-14.3301 -32 -32 -32s-32 14.3301 -32 32zM288 416c159.06 0 288 -128.94 288 -288c0 -52.7998 -14.25 -102.26 -39.0596 -144.8
c-5.61035 -9.62012 -16.3008 -15.2002 -27.4404 -15.2002h-443c-11.1396 0 -21.8301 5.58008 -27.4404 15.2002c-24.8096 42.54 -39.0596 92 -39.0596 144.8c0 159.06 128.94 288 288 288zM500.27 16c18.1709 34.3701 27.7305 72.8799 27.7305 112
c0 132.34 -107.66 240 -240 240s-240 -107.66 -240 -240c0 -39.1201 9.55957 -77.6299 27.7305 -112h424.539zM312 155.25c23.4404 -9.5 40 -32.4004 40.0098 -59.25c0 -11.7197 -3.37988 -22.5498 -8.87988 -32h-110.25c-5.5 9.4502 -8.87988 20.2803 -8.87988 32
c0 26.8398 16.5596 49.75 40 59.25v132.75c0 13.25 10.75 24 24 24s24 -10.75 24 -24v-132.75z" />
    <glyph glyph-name="tachometer-alt-fast" unicode="&#xf625;" horiz-adv-x="576" 
d="M416 128c0 17.6699 14.3301 32 32 32s32 -14.3301 32 -32s-14.3301 -32 -32 -32s-32 14.3301 -32 32zM224 96c0 35.3496 28.6504 64 64.0098 64.0098c6.03027 0 11.7598 -1.10938 17.2998 -2.66992l75.7607 97.4004c8.12988 10.4502 23.1299 12.3701 33.6895 4.2002
c10.4404 -8.12012 12.3506 -23.2002 4.19043 -33.6709l-75.75 -97.3896c5.4502 -9.41992 8.80957 -20.21 8.80957 -31.8799c0 -11.7197 -3.37988 -22.5498 -8.87988 -32h-110.25c-5.5 9.4502 -8.87988 20.2803 -8.87988 32zM320 288c0 -17.6699 -14.3301 -32 -32 -32
s-32 14.3301 -32 32s14.3301 32 32 32s32 -14.3301 32 -32zM128 160c17.6699 0 32 -14.3301 32 -32s-14.3301 -32 -32 -32s-32 14.3301 -32 32s14.3301 32 32 32zM176 208c-17.6699 0 -32 14.3301 -32 32s14.3301 32 32 32s32 -14.3301 32 -32s-14.3301 -32 -32 -32zM0 128
c0 159.06 128.94 288 288 288s288 -128.94 288 -288c0 -52.7998 -14.25 -102.26 -39.0596 -144.8c-5.61035 -9.62012 -16.3008 -15.2002 -27.4404 -15.2002h-443c-11.1396 0 -21.8301 5.58008 -27.4404 15.2002c-24.8096 42.54 -39.0596 92 -39.0596 144.8zM48 128
c0 -39.1201 9.55957 -77.6299 27.7305 -112h424.539c18.1709 34.3701 27.7305 72.8799 27.7305 112c0 132.34 -107.66 240 -240 240s-240 -107.66 -240 -240z" />
    <glyph glyph-name="tachometer-alt-fastest" unicode="&#xf626;" horiz-adv-x="576" 
d="M400 208c-17.6699 0 -32 14.3301 -32 32s14.3301 32 32 32s32 -14.3301 32 -32s-14.3301 -32 -32 -32zM128 160c17.6699 0 32 -14.3301 32 -32s-14.3301 -32 -32 -32s-32 14.3301 -32 32s14.3301 32 32 32zM288 256c-17.6699 0 -32 14.3301 -32 32s14.3301 32 32 32
s32 -14.3301 32 -32s-14.3301 -32 -32 -32zM443.28 151.53c12.9395 2.7793 25.6494 -5.83008 28.25 -18.8301c2.59961 -13 -5.81055 -25.6406 -18.8105 -28.2305l-102.41 -20.4795c-1.44922 -7.10059 -3.63965 -13.9102 -7.17969 -19.9902h-110.25
c-5.5 9.4502 -8.87988 20.2803 -8.87988 32c0 35.3496 28.6504 64 64 64c22.3496 0 41.96 -11.4902 53.4102 -28.8496zM176 272c17.6699 0 32 -14.3301 32 -32s-14.3301 -32 -32 -32s-32 14.3301 -32 32s14.3301 32 32 32zM288 416c159.06 0 288 -128.94 288 -288
c0 -52.7998 -14.25 -102.26 -39.0596 -144.8c-5.61035 -9.62012 -16.3008 -15.2002 -27.4404 -15.2002h-443c-11.1396 0 -21.8301 5.58008 -27.4404 15.2002c-24.8096 42.54 -39.0596 92 -39.0596 144.8c0 159.06 128.94 288 288 288zM500.27 16
c18.1709 34.3701 27.7305 72.8799 27.7305 112c0 132.34 -107.66 240 -240 240s-240 -107.66 -240 -240c0 -39.1201 9.55957 -77.6299 27.7305 -112h424.539z" />
    <glyph glyph-name="tachometer-alt-slow" unicode="&#xf627;" horiz-adv-x="576" 
d="M128 160c17.6699 0 32 -14.3301 32 -32s-14.3301 -32 -32 -32s-32 14.3301 -32 32s14.3301 32 32 32zM288 160c35.3496 0 64 -28.6504 64.0098 -64.0098c0 -11.7207 -3.37988 -22.5498 -8.87988 -32h-110.25c-5.5 9.4502 -8.87988 20.2793 -8.87988 32
c0 11.6699 3.36035 22.46 8.80957 31.8799l-75.75 97.3896c-8.14941 10.4707 -6.25 25.5498 4.19043 33.6699c10.5703 8.18066 25.5703 6.25 33.6904 -4.19922l75.7598 -97.4004c5.53027 1.55957 11.2598 2.66992 17.2998 2.66992zM288 256c-17.6699 0 -32 14.3301 -32 32
s14.3301 32 32 32s32 -14.3301 32 -32s-14.3301 -32 -32 -32zM416 128c0 17.6699 14.3301 32 32 32s32 -14.3301 32 -32s-14.3301 -32 -32 -32s-32 14.3301 -32 32zM432 240c0 -17.6699 -14.3301 -32 -32 -32s-32 14.3301 -32 32s14.3301 32 32 32s32 -14.3301 32 -32z
M288 416c159.06 0 288 -128.94 288 -288c0 -52.7998 -14.25 -102.26 -39.0596 -144.8c-5.61035 -9.62012 -16.3008 -15.2002 -27.4404 -15.2002h-443c-11.1396 0 -21.8301 5.58008 -27.4404 15.2002c-24.8096 42.54 -39.0596 92 -39.0596 144.8c0 159.06 128.94 288 288 288
zM500.27 16c18.1709 34.3701 27.7305 72.8799 27.7305 112c0 132.34 -107.66 240 -240 240s-240 -107.66 -240 -240c0 -39.1201 9.55957 -77.6299 27.7305 -112h424.539z" />
    <glyph glyph-name="tachometer-alt-slowest" unicode="&#xf628;" horiz-adv-x="576" 
d="M288 160c35.3496 0 64 -28.6504 64 -63.9902c0 -11.7197 -3.37988 -22.5498 -8.87988 -32h-110.25c-3.54004 6.08008 -5.73047 12.8906 -7.17969 19.9902l-102.41 20.4805c-13 2.58984 -21.4004 15.2295 -18.8105 28.2295s15.1904 21.5996 28.25 18.8301l101.87 -20.3799
c11.4502 17.3496 31.0605 28.8398 53.4102 28.8398zM176 208c-17.6699 0 -32 14.3301 -32 32s14.3301 32 32 32s32 -14.3301 32 -32s-14.3301 -32 -32 -32zM416 128c0 17.6699 14.3301 32 32 32s32 -14.3301 32 -32s-14.3301 -32 -32 -32s-32 14.3301 -32 32zM288 256
c-17.6699 0 -32 14.3301 -32 32s14.3301 32 32 32s32 -14.3301 32 -32s-14.3301 -32 -32 -32zM432 240c0 -17.6699 -14.3301 -32 -32 -32s-32 14.3301 -32 32s14.3301 32 32 32s32 -14.3301 32 -32zM288 416c159.06 0 288 -128.94 288 -288
c0 -52.7998 -14.25 -102.26 -39.0596 -144.8c-5.61035 -9.62012 -16.3008 -15.2002 -27.4404 -15.2002h-443c-11.1396 0 -21.8301 5.58008 -27.4404 15.2002c-24.8096 42.54 -39.0596 92 -39.0596 144.8c0 159.06 128.94 288 288 288zM500.27 16
c18.1709 34.3701 27.7305 72.8799 27.7305 112c0 132.34 -107.66 240 -240 240s-240 -107.66 -240 -240c0 -39.1201 9.55957 -77.6299 27.7305 -112h424.539z" />
    <glyph glyph-name="tachometer-average" unicode="&#xf629;" horiz-adv-x="576" 
d="M312 155.25c23.4404 -9.5 40 -32.4004 40.0098 -59.25c0 -11.7197 -3.37988 -22.5498 -8.87988 -32h-110.25c-5.5 9.4502 -8.87988 20.2803 -8.87988 32c0 26.8398 16.5596 49.75 40 59.25v132.75c0 13.25 10.75 24 24 24s24 -10.75 24 -24v-132.75zM288 416
c159.06 0 288 -128.94 288 -288c0 -52.7998 -14.25 -102.26 -39.0596 -144.8c-5.61035 -9.62012 -16.3008 -15.2002 -27.4404 -15.2002h-443c-11.1396 0 -21.8301 5.58008 -27.4404 15.2002c-24.8096 42.54 -39.0596 92 -39.0596 144.8c0 159.06 128.94 288 288 288z
M500.27 16c18.1709 34.3701 27.7305 72.8799 27.7305 112c0 132.34 -107.66 240 -240 240s-240 -107.66 -240 -240c0 -39.1201 9.55957 -77.6299 27.7305 -112h424.539z" />
    <glyph glyph-name="tachometer-fast" unicode="&#xf62a;" horiz-adv-x="576" 
d="M381.06 254.73c8.10059 10.4395 23.1309 12.3594 33.7002 4.20996c10.4404 -8.12012 12.3506 -23.2002 4.19043 -33.6709l-75.75 -97.3896c5.4502 -9.41992 8.80957 -20.21 8.80957 -31.8799c0 -11.7197 -3.37988 -22.5498 -8.87988 -32h-110.25
c-5.5 9.4502 -8.87988 20.2803 -8.87988 32c0 35.3496 28.6504 64 64 64c6.03027 0 11.7598 -1.11035 17.2998 -2.66992zM288 416c159.06 0 288 -128.94 288 -288c0 -52.7998 -14.25 -102.26 -39.0596 -144.8c-5.61035 -9.62012 -16.3008 -15.2002 -27.4404 -15.2002h-443
c-11.1396 0 -21.8301 5.58008 -27.4404 15.2002c-24.8096 42.54 -39.0596 92 -39.0596 144.8c0 159.06 128.94 288 288 288zM500.27 16c18.1709 34.3701 27.7305 72.8799 27.7305 112c0 132.34 -107.66 240 -240 240s-240 -107.66 -240 -240
c0 -39.1201 9.55957 -77.6299 27.7305 -112h424.539z" />
    <glyph glyph-name="tachometer-fastest" unicode="&#xf62b;" horiz-adv-x="576" 
d="M443.28 151.53c12.9395 2.7793 25.6494 -5.83008 28.25 -18.8301c2.59961 -13 -5.81055 -25.6406 -18.8105 -28.2305l-102.41 -20.4795c-1.44922 -7.10059 -3.63965 -13.9102 -7.17969 -19.9902h-110.25c-5.5 9.4502 -8.87988 20.2803 -8.87988 32
c0 35.3496 28.6504 64 64 64c22.3496 0 41.96 -11.4902 53.4102 -28.8496zM288 416c159.06 0 288 -128.94 288 -288c0 -52.7998 -14.25 -102.26 -39.0596 -144.8c-5.61035 -9.62012 -16.3008 -15.2002 -27.4404 -15.2002h-443c-11.1396 0 -21.8301 5.58008 -27.4404 15.2002
c-24.8096 42.54 -39.0596 92 -39.0596 144.8c0 159.06 128.94 288 288 288zM500.27 16c18.1709 34.3701 27.7305 72.8799 27.7305 112c0 132.34 -107.66 240 -240 240s-240 -107.66 -240 -240c0 -39.1201 9.55957 -77.6299 27.7305 -112h424.539z" />
    <glyph glyph-name="tachometer-slow" unicode="&#xf62c;" horiz-adv-x="576" 
d="M288 160c35.3496 0 64 -28.6504 64.0098 -64.0098c0 -11.7207 -3.37988 -22.5498 -8.87988 -32h-110.25c-5.5 9.4502 -8.87988 20.2793 -8.87988 32c0 11.6699 3.36035 22.46 8.80957 31.8799l-75.75 97.3896c-8.14941 10.4707 -6.25 25.5498 4.19043 33.6699
c10.5703 8.18066 25.5703 6.25 33.6904 -4.19922l75.7598 -97.4004c5.53027 1.55957 11.2598 2.66992 17.2998 2.66992zM288 416c159.06 0 288 -128.94 288 -288c0 -52.7998 -14.25 -102.26 -39.0596 -144.8c-5.61035 -9.62012 -16.3008 -15.2002 -27.4404 -15.2002h-443
c-11.1396 0 -21.8301 5.58008 -27.4404 15.2002c-24.8096 42.54 -39.0596 92 -39.0596 144.8c0 159.06 128.94 288 288 288zM500.27 16c18.1709 34.3701 27.7305 72.8799 27.7305 112c0 132.34 -107.66 240 -240 240s-240 -107.66 -240 -240
c0 -39.1201 9.55957 -77.6299 27.7305 -112h424.539z" />
    <glyph glyph-name="tachometer-slowest" unicode="&#xf62d;" horiz-adv-x="576" 
d="M288 160c35.3496 0 64 -28.6504 64 -63.9902c0 -11.7197 -3.37988 -22.5498 -8.87988 -32h-110.25c-3.54004 6.08008 -5.73047 12.8906 -7.17969 19.9902l-102.41 20.4805c-13 2.58984 -21.4004 15.2295 -18.8105 28.2295s15.1904 21.5996 28.25 18.8301l101.87 -20.3799
c11.4502 17.3496 31.0605 28.8398 53.4102 28.8398zM288 416c159.06 0 288 -128.94 288 -288c0 -52.7998 -14.25 -102.26 -39.0596 -144.8c-5.61035 -9.62012 -16.3008 -15.2002 -27.4404 -15.2002h-443c-11.1396 0 -21.8301 5.58008 -27.4404 15.2002
c-24.8096 42.54 -39.0596 92 -39.0596 144.8c0 159.06 128.94 288 288 288zM500.27 16c18.1709 34.3701 27.7305 72.8799 27.7305 112c0 132.34 -107.66 240 -240 240s-240 -107.66 -240 -240c0 -39.1201 9.55957 -77.6299 27.7305 -112h424.539z" />
    <glyph glyph-name="teeth" unicode="&#xf62e;" 
d="M544 448c53.0195 0 96 -42.9805 96 -96v-320c0 -53.0195 -42.9805 -96 -96 -96h-448c-53.0195 0 -96 42.9805 -96 96v320c0 53.0195 42.9805 96 96 96h448zM592 32v29.6797c-15.9297 -22.7197 -42.21 -37.6797 -72 -37.6797
c-26.3799 0 -50.0898 11.6699 -66.2305 30.1201c-17.5195 -18.54 -42.3193 -30.1201 -69.7695 -30.1201c-24.5596 0 -47 9.26953 -64 24.5c-17 -15.2305 -39.4404 -24.5 -64 -24.5c-27.4502 0 -52.25 11.5801 -69.7695 30.1201
c-16.1406 -18.4502 -39.8506 -30.1201 -66.2305 -30.1201c-29.79 0 -56.0703 14.96 -72 37.6797v-29.6797c0 -26.4697 21.5303 -48 48 -48h448c26.4697 0 48 21.5303 48 48zM93.3301 160c-7.36035 0 -13.3301 -5.96973 -13.3398 -13.3301v-34.6699
c0 -22.0898 17.9102 -40 40 -40s40 17.9102 40 40v34.6699c0 7.36035 -5.9707 13.3301 -13.3301 13.3301h-53.3301zM80 205.33c0 -7.36035 5.96973 -13.3301 13.3301 -13.3301h53.3398c7.36035 0 13.3301 5.96973 13.3301 13.3301v34.6699c0 22.0898 -17.9102 40 -40 40
s-40 -17.9102 -40 -40v-34.6699zM221.71 160c-7.57031 0 -13.71 -6.13965 -13.7197 -13.71v-26.29c0 -26.5098 21.4902 -48 48 -48s48 21.4902 48 48v26.29c0 7.57031 -6.14062 13.71 -13.71 13.71h-68.5703zM208 205.71c0 -7.57031 6.13965 -13.71 13.7197 -13.71h68.5703
c7.57031 0 13.71 6.13965 13.71 13.71v58.29c0 26.5098 -21.4902 48 -48 48s-48 -21.4902 -48 -48v-58.29zM349.71 160c-7.57031 0 -13.71 -6.13965 -13.7197 -13.71v-26.29c0 -26.5098 21.4902 -48 48 -48s48 21.4902 48 48v26.29c0 7.57031 -6.14062 13.71 -13.71 13.71
h-68.5703zM336 205.71c0 -7.57031 6.13965 -13.71 13.7197 -13.71h68.5703c7.57031 0 13.71 6.13965 13.71 13.71v58.29c0 26.5098 -21.4902 48 -48 48s-48 -21.4902 -48 -48v-58.29zM493.33 160c-7.36035 0 -13.3301 -5.96973 -13.3398 -13.3301v-34.6699
c0 -22.0898 17.9102 -40 40 -40s40 17.9102 40 40v34.6699c0 7.36035 -5.9707 13.3301 -13.3301 13.3301h-53.3301zM480 205.33c0 -7.36035 5.96973 -13.3301 13.3398 -13.3301h53.3301c7.36035 0 13.3301 5.96973 13.3301 13.3301v34.6699c0 22.0898 -17.9102 40 -40 40
s-40 -17.9102 -40 -40v-34.6699zM592 290.32v61.6797c0 26.4697 -21.5303 48 -48 48h-448c-26.4697 0 -48 -21.5303 -48 -48v-61.6797c15.9297 22.7197 42.21 37.6797 72 37.6797c19.5195 0 37.5898 -6.40039 52.2002 -17.2002
c16.4502 29.3398 47.8496 49.2002 83.7998 49.2002c24.5596 0 47 -9.26953 64 -24.5c17 15.2305 39.4404 24.5 64 24.5c35.9502 0 67.3496 -19.8604 83.7998 -49.2002c14.6104 10.8105 32.6699 17.2002 52.2002 17.2002c29.79 0 56.0703 -14.96 72 -37.6797z" />
    </font>
</defs>
</svg>
