<?xml version="1.0" standalone="no"?>
<!DOCTYPE svg PUBLIC "-//W3C//DTD SVG 1.1//EN" "http://www.w3.org/Graphics/SVG/1.1/DTD/svg11.dtd" >
<svg xmlns="http://www.w3.org/2000/svg" xmlns:xlink="http://www.w3.org/1999/xlink" version="1.1">
<metadata>
Created by FontForge 20200314 at Mon Oct  5 09:52:24 2020
 By Robert Madole
Copyright (c) Font Awesome
</metadata>
<!-- Font Awesome Pro 5.15.1 by @fontawesome - https://fontawesome.com License - https://fontawesome.com/license (Commercial License) --><defs>
<font id="FontAwesome5Pro-Regular" horiz-adv-x="448" >
  <font-face 
    font-family="Font Awesome 5 Pro Regular"
    font-weight="400"
    font-stretch="normal"
    units-per-em="512"
    panose-1="2 0 5 3 0 0 0 0 0 0"
    ascent="448"
    descent="-64"
    bbox="-1 -64.8086 640.038 448.996"
    underline-thickness="25"
    underline-position="-50"
    unicode-range="U+0020-F8FF"
  />
    <missing-glyph />
    <glyph glyph-name="align-left" unicode="&#xf036;" 
d="M12.8301 104c-7.07617 0 -12.8301 5.74414 -12.8301 12.8193v0.0107422v22.3398v0.00976562c0 7.07617 5.74414 12.8203 12.8193 12.8203h0.0107422h262.34h0.00976562c7.07617 0 12.8203 -5.74414 12.8203 -12.8193v-0.0107422v-22.3398v-0.00976562
c0 -7.07617 -5.74414 -12.8203 -12.8193 -12.8203h-0.0107422h-262.34zM12.8301 360c-7.07617 0 -12.8301 5.74414 -12.8301 12.8193v0.0107422v22.3398v0.00976562c0 7.07617 5.74414 12.8203 12.8193 12.8203h0.0107422h262.34h0.00976562
c7.07617 0 12.8203 -5.74414 12.8203 -12.8193v-0.0107422v-22.3398v-0.00976562c0 -7.07617 -5.74414 -12.8203 -12.8193 -12.8203h-0.0107422h-262.34zM432 280c8.83105 0 16 -7.16895 16 -16v-16c0 -8.83105 -7.16895 -16 -16 -16h-416c-8.83105 0 -16 7.16895 -16 16v16
c0 8.83105 7.16895 16 16 16h416zM432 24c8.83105 0 16 -7.16895 16 -16v-16c0 -8.83105 -7.16895 -16 -16 -16h-416c-8.83105 0 -16 7.16895 -16 16v16c0 8.83105 7.16895 16 16 16h416z" />
    <glyph glyph-name="align-center" unicode="&#xf037;" 
d="M108.1 360c-6.67773 0 -12.0996 5.42188 -12.0996 12.0996v23.8105c0 6.67285 5.41699 12.0898 12.0898 12.0898h0.00976562h231.811c6.67285 0 12.0898 -5.41699 12.0898 -12.0898v-23.8105v-0.00976562c0 -6.67285 -5.41699 -12.0898 -12.0898 -12.0898h-231.811z
M432 24c8.83105 0 16 -7.16895 16 -16v-16c0 -8.83105 -7.16895 -16 -16 -16h-416c-8.83105 0 -16 7.16895 -16 16v16c0 8.83105 7.16895 16 16 16h416zM432 280c8.83105 0 16 -7.16895 16 -16v-16c0 -8.83105 -7.16895 -16 -16 -16h-416c-8.83105 0 -16 7.16895 -16 16v16
c0 8.83105 7.16895 16 16 16h416zM339.91 104h-231.811c-6.67773 0 -12.0996 5.42188 -12.0996 12.0996v23.8105c0 6.67285 5.41699 12.0898 12.0898 12.0898h0.00976562h231.811c6.67285 0 12.0898 -5.41699 12.0898 -12.0898v-23.8105v-0.00976562
c0 -6.67285 -5.41699 -12.0898 -12.0898 -12.0898z" />
    <glyph glyph-name="align-right" unicode="&#xf038;" 
d="M16 232c-8.83105 0 -16 7.16895 -16 16v16c0 8.83105 7.16895 16 16 16h416c8.83105 0 16 -7.16895 16 -16v-16c0 -8.83105 -7.16895 -16 -16 -16h-416zM432 24c8.83105 0 16 -7.16895 16 -16v-16c0 -8.83105 -7.16895 -16 -16 -16h-416c-8.83105 0 -16 7.16895 -16 16
v16c0 8.83105 7.16895 16 16 16h416zM435.17 408c7.07617 0 12.8301 -5.74414 12.8301 -12.8193v-0.0107422v-22.3398v-0.00976562c0 -7.07617 -5.74414 -12.8203 -12.8193 -12.8203h-0.0107422h-262.34h-0.00976562c-7.07617 0 -12.8203 5.74414 -12.8203 12.8193
v0.0107422v22.3398v0.00976562c0 7.07617 5.74414 12.8203 12.8193 12.8203h0.0107422h262.34zM435.17 152c7.07617 0 12.8301 -5.74414 12.8301 -12.8193v-0.0107422v-22.3398v-0.00976562c0 -7.07617 -5.74414 -12.8203 -12.8193 -12.8203h-0.0107422h-262.34h-0.00976562
c-7.07617 0 -12.8203 5.74414 -12.8203 12.8193v0.0107422v22.3398v0.00976562c0 7.07617 5.74414 12.8203 12.8193 12.8203h0.0107422h262.34z" />
    <glyph glyph-name="align-justify" unicode="&#xf039;" 
d="M432 24c8.83105 0 16 -7.16895 16 -16v-16c0 -8.83105 -7.16895 -16 -16 -16h-416c-8.83105 0 -16 7.16895 -16 16v16c0 8.83105 7.16895 16 16 16h416zM432 152c8.83105 0 16 -7.16895 16 -16v-16c0 -8.83105 -7.16895 -16 -16 -16h-416c-8.83105 0 -16 7.16895 -16 16
v16c0 8.83105 7.16895 16 16 16h416zM432 280c8.83105 0 16 -7.16895 16 -16v-16c0 -8.83105 -7.16895 -16 -16 -16h-416c-8.83105 0 -16 7.16895 -16 16v16c0 8.83105 7.16895 16 16 16h416zM432 408c8.83105 0 16 -7.16895 16 -16v-16c0 -8.83105 -7.16895 -16 -16 -16
h-416c-8.83105 0 -16 7.16895 -16 16v16c0 8.83105 7.16895 16 16 16h416z" />
    <glyph glyph-name="list" unicode="&#xf03a;" horiz-adv-x="512" 
d="M80 400c8.83105 0 16 -7.16895 16 -16v-64c0 -8.83105 -7.16895 -16 -16 -16h-64c-8.83105 0 -16 7.16895 -16 16v64c0 8.83105 7.16895 16 16 16h64zM80 240c8.83105 0 16 -7.16895 16 -16v-64c0 -8.83105 -7.16895 -16 -16 -16h-64c-8.83105 0 -16 7.16895 -16 16v64
c0 8.83105 7.16895 16 16 16h64zM80 80c8.83105 0 16 -7.16895 16 -16v-64c0 -8.83105 -7.16895 -16 -16 -16h-64c-8.83105 0 -16 7.16895 -16 16v64c0 8.83105 7.16895 16 16 16h64zM496 216c8.83105 0 16 -7.16895 16 -16v-16c0 -8.83105 -7.16895 -16 -16 -16h-320
c-8.83105 0 -16 7.16895 -16 16v16c0 8.83105 7.16895 16 16 16h320zM496 56c8.83105 0 16 -7.16895 16 -16v-16c0 -8.83105 -7.16895 -16 -16 -16h-320c-8.83105 0 -16 7.16895 -16 16v16c0 8.83105 7.16895 16 16 16h320zM496 376c8.83105 0 16 -7.16895 16 -16v-16
c0 -8.83105 -7.16895 -16 -16 -16h-320c-8.83105 0 -16 7.16895 -16 16v16c0 8.83105 7.16895 16 16 16h320z" />
    <glyph glyph-name="outdent" unicode="&#xf03b;" 
d="M100.69 84.71l-96 95.9805c-2.89453 2.89551 -4.68555 6.89844 -4.68555 11.3115c0 4.41406 1.79102 8.41211 4.68555 11.3076l96 96c9.97949 10 27.3096 3.01074 27.3096 -11.3096v-191.98c0 -14.2393 -17.3096 -21.3096 -27.3096 -11.3096zM432 24
c8.83105 0 16 -7.16895 16 -16v-16c0 -8.83105 -7.16895 -16 -16 -16h-416c-8.83105 0 -16 7.16895 -16 16v16c0 8.83105 7.16895 16 16 16h416zM435.17 152c7.07617 0 12.8301 -5.74414 12.8301 -12.8193v-0.0107422v-22.3398v-0.00976562
c0 -7.07617 -5.74414 -12.8203 -12.8193 -12.8203h-0.0107422h-230.34h-0.00976562c-7.07617 0 -12.8203 5.74414 -12.8203 12.8193v0.0107422v22.3398v0.00976562c0 7.07617 5.74414 12.8203 12.8193 12.8203h0.0107422h230.34zM432 408c8.83105 0 16 -7.16895 16 -16v-16
c0 -8.83105 -7.16895 -16 -16 -16h-416c-8.83105 0 -16 7.16895 -16 16v16c0 8.83105 7.16895 16 16 16h416zM435.17 280c7.07617 0 12.8301 -5.74414 12.8301 -12.8193v-0.0107422v-22.3398v-0.00976562c0 -7.07617 -5.74414 -12.8203 -12.8193 -12.8203h-0.0107422
h-230.34h-0.00976562c-7.07617 0 -12.8203 5.74414 -12.8203 12.8193v0.0107422v22.3398v0.00976562c0 7.07617 5.74414 12.8203 12.8193 12.8203h0.0107422h230.34z" />
    <glyph glyph-name="indent" unicode="&#xf03c;" 
d="M432 24c8.83105 0 16 -7.16895 16 -16v-16c0 -8.83105 -7.16895 -16 -16 -16h-416c-8.83105 0 -16 7.16895 -16 16v16c0 8.83105 7.16895 16 16 16h416zM27.3096 84.7002c-9.97949 -10 -27.3096 -3.00977 -27.3096 11.2998v192
c0 14.2197 17.2695 21.3398 27.3096 11.3203l96 -96c2.89453 -2.89648 4.68555 -6.89941 4.68555 -11.3125s-1.79102 -8.41211 -4.68555 -11.3076zM435.17 280c7.07617 0 12.8301 -5.74414 12.8301 -12.8193v-0.0107422v-22.3398v-0.00976562
c0 -7.07617 -5.74414 -12.8203 -12.8193 -12.8203h-0.0107422h-230.34h-0.00976562c-7.07617 0 -12.8203 5.74414 -12.8203 12.8193v0.0107422v22.3398v0.00976562c0 7.07617 5.74414 12.8203 12.8193 12.8203h0.0107422h230.34zM432 400c8.83105 0 16 -7.16895 16 -16v-16
c0 -8.83105 -7.16895 -16 -16 -16h-416c-8.83105 0 -16 7.16895 -16 16v16c0 8.83105 7.16895 16 16 16h416zM435.17 152c7.07617 0 12.8301 -5.74414 12.8301 -12.8193v-0.0107422v-22.3398v-0.00976562c0 -7.07617 -5.74414 -12.8203 -12.8193 -12.8203h-0.0107422
h-230.34h-0.00976562c-7.07617 0 -12.8203 5.74414 -12.8203 12.8193v0.0107422v22.3398v0.00976562c0 7.07617 5.74414 12.8203 12.8193 12.8203h0.0107422h230.34z" />
    <glyph glyph-name="tasks" unicode="&#xf0ae;" horiz-adv-x="512" 
d="M496 216c8.83105 0 16 -7.16895 16 -16v-16c0 -8.83105 -7.16895 -16 -16 -16h-288c-8.83105 0 -16 7.16895 -16 16v16c0 8.83105 7.16895 16 16 16h288zM496 56c8.83105 0 16 -7.16895 16 -16v-16c0 -8.83105 -7.16895 -16 -16 -16h-288c-8.83105 0 -16 7.16895 -16 16
v16c0 8.83105 7.16895 16 16 16h288zM496 376c8.83105 0 16 -7.16895 16 -16v-16c0 -8.83105 -7.16895 -16 -16 -16h-288c-8.83105 0 -16 7.16895 -16 16v16c0 8.83105 7.16895 16 16 16h288zM64.2998 80c26.4922 0 48 -21.5078 48 -48s-21.5078 -48 -48 -48
c-26.2998 0 -48.2998 21.5 -48.2998 48s22 48 48.2998 48zM139.56 252.51l16.9902 -16.8896c2.12598 -2.14355 3.44043 -5.09668 3.44043 -8.35156c0 -3.30566 -1.35547 -6.29688 -3.54004 -8.44824l-72.1699 -71.7402l-15.7002 -15.5898
c-2.2959 -2.16211 -5.39453 -3.48828 -8.79395 -3.48828s-6.49121 1.32617 -8.78613 3.48828l-47.4697 47.1895c-2.18164 2.15137 -3.53516 5.14355 -3.53516 8.44629c0 3.30371 1.35352 6.29297 3.53516 8.44434l15.6895 15.5801
c2.17383 2.18066 5.18262 3.53125 8.50195 3.53125s6.3252 -1.35059 8.49805 -3.53125l22.6807 -21.9404l63.6592 63.2998c2.18457 2.16016 5.19141 3.49414 8.50293 3.49414c3.31055 0 6.31348 -1.33398 8.49707 -3.49414zM139.56 412.51l17 -16.4199
c2.13965 -2.1748 3.46094 -5.16211 3.46094 -8.45117c0 -3.34082 -1.36133 -6.36523 -3.56055 -8.54883l-72.1699 -72l-15.5898 -15.5801c-2.29297 -2.17383 -5.39746 -3.50879 -8.80371 -3.50879s-6.50293 1.33496 -8.79688 3.50879l-47.5693 47.2803
c-2.18262 2.16211 -3.53613 5.16406 -3.53613 8.47656s1.35352 6.31055 3.53613 8.47363l15.6895 15.6797c2.18262 2.16406 5.18945 3.50195 8.50195 3.50195c3.31348 0 6.31641 -1.33789 8.49805 -3.50195l22.6904 -22.0703l63.6494 63.1602
c2.17383 2.18066 5.18262 3.53125 8.50195 3.53125s6.3252 -1.35059 8.49805 -3.53125z" />
    <glyph glyph-name="list-ul" unicode="&#xf0ca;" horiz-adv-x="512" 
d="M48 80c26.4922 0 48 -21.5078 48 -48s-21.5078 -48 -48 -48s-48 21.5078 -48 48s21.5078 48 48 48zM48 240c26.4922 0 48 -21.5078 48 -48s-21.5078 -48 -48 -48s-48 21.5078 -48 48s21.5078 48 48 48zM48 400c26.4922 0 48 -21.5078 48 -48s-21.5078 -48 -48 -48
s-48 21.5078 -48 48s21.5078 48 48 48zM496 376c8.83105 0 16 -7.16895 16 -16v-16c0 -8.83105 -7.16895 -16 -16 -16h-320c-8.83105 0 -16 7.16895 -16 16v16c0 8.83105 7.16895 16 16 16h320zM496 216c8.83105 0 16 -7.16895 16 -16v-16c0 -8.83105 -7.16895 -16 -16 -16
h-320c-8.83105 0 -16 7.16895 -16 16v16c0 8.83105 7.16895 16 16 16h320zM496 56c8.83105 0 16 -7.16895 16 -16v-16c0 -8.83105 -7.16895 -16 -16 -16h-320c-8.83105 0 -16 7.16895 -16 16v16c0 8.83105 7.16895 16 16 16h320z" />
    <glyph glyph-name="list-ol" unicode="&#xf0cb;" horiz-adv-x="512" 
d="M61.7695 47c19.6104 -5.12012 28.7002 -20.5 28.7305 -34.8799c0 -21.3701 -14.3398 -44.1201 -48.5 -44.1201c-16.6104 0 -29.29 4.75 -37 9.44043c-5.82031 4.21973 -6.34961 9.80957 -2.62012 15.9395l5.58984 9.31055c3.86035 6.61914 9.11035 7 15.6006 3.11914
c4.7666 -1.95996 10.0098 -3.07617 15.4697 -3.11914c10.1602 0 14.3604 3.5 14.3604 8.21973c0 6.64941 -5.61035 9.08984 -15.9404 9.08984h-4.72949c-5.9502 0 -9.25 2.12012 -12.25 7.87988l-1.05078 1.92969c-2.44922 4.75 -1.19922 9.81055 2.80078 14.8809l5.60938 7
c3.4707 4.32715 7.09277 8.37988 11 12.3096h-22.8398c-4.41504 0 -8 3.58496 -8 8v16c0 4.41504 3.58496 8 8 8h57c7.5 0 11.3398 -4 11.3398 -11.3496v-3.31055c0.0136719 -0.299805 0.0175781 -0.595703 0.0175781 -0.899414
c0 -5.10449 -1.9248 -9.76367 -5.08789 -13.29zM496 56c8.83105 0 16 -7.16895 16 -16v-16c0 -8.83105 -7.16895 -16 -16 -16h-320c-8.83105 0 -16 7.16895 -16 16v16c0 8.83105 7.16895 16 16 16h320zM496 376c8.83105 0 16 -7.16895 16 -16v-16
c0 -8.83105 -7.16895 -16 -16 -16h-320c-8.83105 0 -16 7.16895 -16 16v16c0 8.83105 7.16895 16 16 16h320zM496 216c8.83105 0 16 -7.16895 16 -16v-16c0 -8.83105 -7.16895 -16 -16 -16h-320c-8.83105 0 -16 7.16895 -16 16v16c0 8.83105 7.16895 16 16 16h320zM16 288
c-4.41504 0 -8 3.58496 -8 8v16c0 4.41504 3.58496 8 8 8h16v64h-8c-4.4082 0.0078125 -7.98145 3.59766 -7.98145 8.00781c0 1.2832 0.303711 2.49707 0.841797 3.57227l8 16c1.31055 2.62012 4.01367 4.41406 7.13965 4.41992h24c4.41504 0 8 -3.58496 8 -8v-88h16
c4.41504 0 8 -3.58496 8 -8v-16c0 -4.41504 -3.58496 -8 -8 -8h-64zM12.0996 128c-7.01953 0 -12.0996 4 -12.0996 11.4102v4c0 47.2803 51 56.3994 50.9697 69.1201c0 7.18945 -5.9502 8.75 -9.2793 8.75c-0.0205078 0 -0.0429688 0.000976562 -0.0634766 0.000976562
c-3.6543 0 -6.96875 -1.46582 -9.38672 -3.84082c-5.12988 -4.91016 -10.5205 -7 -16.1299 -2.44043l-8.58008 6.87988c-5.79004 4.53027 -7.16992 9.78027 -2.79004 15.3701c6.64941 8.75 19.0898 18.75 40.4502 18.75c19.4697 0 44.4697 -10.5 44.4697 -39.5596
c0 -37.7607 -45.0498 -46.1504 -48.3301 -56.4404h38.6699c4.41504 0 8 -3.58496 8 -8v-16c0 -4.41504 -3.58496 -8 -8 -8h-67.9004z" />
    <glyph glyph-name="strikethrough" unicode="&#xf0cc;" horiz-adv-x="512" 
d="M150.39 240c-11.9297 15.7197 -20.1895 34 -21.9492 54.0898c-4.01074 45.6904 19.8291 87.8301 60.1797 108c17.7188 8.83008 37.8193 13.8848 58.9395 13.9102h62.54c35.8438 0 67.6328 -17.1758 87.6006 -43.8398l15.1094 -20.1602
c2.00293 -2.67188 3.20996 -5.99512 3.20996 -9.58789c0 -5.23828 -2.52344 -9.89258 -6.41992 -12.8125l-25.6191 -19.1895c-2.67188 -2.00195 -5.99512 -3.20996 -9.58789 -3.20996c-5.23926 0 -9.89355 2.52344 -12.8125 6.41992l-15.0898 20.1299
c-8.31836 11.1006 -21.5566 18.25 -36.4824 18.25h-0.0078125h-62.4404c-10.8633 -0.0078125 -21.2012 -2.61035 -30.3096 -7.16016c-14.9922 -7.4873 -25.2979 -22.9297 -25.2979 -40.8135s10.3057 -33.3789 25.2979 -40.8662l46.3096 -23.1602h-113.17zM496 208
c8.83105 0 16 -7.16895 16 -16v-16c0 -8.83105 -7.16895 -16 -16 -16h-480c-8.83105 0 -16 7.16895 -16 16v16c0 8.83105 7.16895 16 16 16h480zM403.5 128c6.16992 -11.8203 10.8701 -24.4004 12.0596 -38.0898c4.01074 -45.6904 -19.8291 -87.8301 -60.1895 -108
c-17.7148 -8.83105 -37.8125 -13.8857 -58.9297 -13.9102h-62.54c-35.8389 0 -67.6328 17.1719 -87.6006 43.8301l-15.1094 20.1699c-2.00293 2.67188 -3.20996 5.99512 -3.20996 9.58789c0 5.23828 2.52344 9.89258 6.41992 12.8125l25.6191 19.1895
c2.67188 2.00195 5.99512 3.20996 9.58789 3.20996c5.23926 0 9.89355 -2.52344 12.8125 -6.41992l15.0898 -20.1299c8.31836 -11.1006 21.5566 -18.25 36.4824 -18.25h0.0078125h62.4404c10.8633 0.0078125 21.2012 2.61035 30.3096 7.16016
c14.9922 7.4873 25.2979 22.9297 25.2979 40.8135s-10.3057 33.3789 -25.2979 40.8662l-14.3203 7.16016h91.0703z" />
    <glyph glyph-name="underline" unicode="&#xf0cd;" 
d="M32 400c-8.83105 0 -16 7.16895 -16 16v16c0 8.83105 7.16895 16 16 16h128c8.83105 0 16 -7.16895 16 -16v-16c0 -8.83105 -7.16895 -16 -16 -16h-32v-208c0 -52.9834 43.0166 -96 96 -96s96 43.0166 96 96v208h-32c-8.83105 0 -16 7.16895 -16 16v16
c0 8.83105 7.16895 16 16 16h128c8.83105 0 16 -7.16895 16 -16v-16c0 -8.83105 -7.16895 -16 -16 -16h-32v-208c0 -88.2197 -71.7803 -160 -160 -160s-160 71.7803 -160 160v208h-32zM432 -16c8.83105 0 16 -7.16895 16 -16v-16c0 -8.83105 -7.16895 -16 -16 -16h-416
c-8.83105 0 -16 7.16895 -16 16v16c0 8.83105 7.16895 16 16 16h416z" />
    <glyph glyph-name="sort-alpha-down" unicode="&#xf15d;" 
d="M447.17 245.06c0.530273 -1.58984 0.820312 -3.29297 0.820312 -5.05957c0 -8.80762 -7.13184 -15.9619 -15.9307 -16h-16.7793c-7.04297 0.0078125 -13.0166 4.59375 -15.1104 10.9404l-10.5195 29.0596h-75.3008l-10.5195 -29.0596
c-2.09375 -6.34668 -8.06738 -10.9326 -15.1104 -10.9404h-16.7793c-8.79395 0.0429688 -15.918 7.19824 -15.918 16.0029c0 1.7666 0.287109 3.4668 0.817383 5.05664l61.0605 160c2.08984 6.3457 8.06055 10.9307 15.0996 10.9404h38
c7.03809 -0.0263672 13.0078 -4.60254 15.1201 -10.9404zM331.73 312h40.5391l-20.2695 56zM416 160c8.83105 0 16 -7.16895 16 -16v-19c0 -0.0136719 0.00195312 -0.0341797 0.00195312 -0.0488281c0 -8.6377 -3.43066 -16.4814 -9.00195 -22.2412l-84.1104 -86.71h77.1104
c8.83105 0 16 -7.16895 16 -16v-16c0 -8.83105 -7.16895 -16 -16 -16h-128c-8.83105 0 -16 7.16895 -16 16v19c0 0.0205078 -0.00195312 0.0478516 -0.00195312 0.0683594c0 8.63867 3.43066 16.4824 9.00195 22.2412l84.1104 86.6904h-77.1104
c-8.83105 0 -16 7.16895 -16 16v16c0 8.83105 7.16895 16 16 16h128zM164 64c6.61621 -0.0078125 11.9863 -5.38477 11.9863 -12.0039c0 -3.1875 -1.24609 -6.08594 -3.27637 -8.23633l-68 -72c-2.18848 -2.31445 -5.28613 -3.75977 -8.71973 -3.75977
s-6.53223 1.44531 -8.7207 3.75977l-68 72c-2.03027 2.15039 -3.27637 5.05273 -3.27637 8.24023c0 6.62305 5.37695 12 12 12h0.00683594h44v336c0 8.83105 7.16895 16 16 16h16c8.83105 0 16 -7.16895 16 -16v-336h44z" />
    <glyph glyph-name="sort-alpha-up" unicode="&#xf15e;" 
d="M447.17 245.06c0.530273 -1.58984 0.820312 -3.29297 0.820312 -5.05957c0 -8.80762 -7.13184 -15.9619 -15.9307 -16h-16.7793c-7.04297 0.0078125 -13.0166 4.59375 -15.1104 10.9404l-10.5195 29.0596h-75.3008l-10.5195 -29.0596
c-2.09375 -6.34668 -8.06738 -10.9326 -15.1104 -10.9404h-16.7793c-8.79395 0.0429688 -15.918 7.19824 -15.918 16.0029c0 1.7666 0.287109 3.4668 0.817383 5.05664l61.0605 160c2.08984 6.3457 8.06055 10.9307 15.0996 10.9404h38
c7.03809 -0.0263672 13.0078 -4.60254 15.1201 -10.9404zM331.73 312h40.5391l-20.2695 56zM416 160c8.83105 0 16 -7.16895 16 -16v-19c0 -0.0136719 0.00195312 -0.0341797 0.00195312 -0.0488281c0 -8.6377 -3.43066 -16.4814 -9.00195 -22.2412l-84.1104 -86.71h77.1104
c8.83105 0 16 -7.16895 16 -16v-16c0 -8.83105 -7.16895 -16 -16 -16h-128c-8.83105 0 -16 7.16895 -16 16v19c0 0.0205078 -0.00195312 0.0478516 -0.00195312 0.0683594c0 8.63867 3.43066 16.4824 9.00195 22.2412l84.1104 86.6904h-77.1104
c-8.83105 0 -16 7.16895 -16 16v16c0 8.83105 7.16895 16 16 16h128zM28 320c-6.61621 0.0078125 -11.9863 5.38477 -11.9863 12.0039c0 3.1875 1.24609 6.08594 3.27637 8.23633l68 72c2.18848 2.31445 5.28613 3.75977 8.71973 3.75977s6.53223 -1.44531 8.7207 -3.75977
l68 -72c2.03027 -2.15039 3.27637 -5.05273 3.27637 -8.24023c0 -6.62305 -5.37695 -12 -12 -12h-0.00683594h-44v-336c0 -8.83105 -7.16895 -16 -16 -16h-16c-8.83105 0 -16 7.16895 -16 16v336h-44z" />
    <glyph glyph-name="sort-amount-down" unicode="&#xf160;" horiz-adv-x="512" 
d="M304 72c8.83105 0 16 -7.16895 16 -16v-16c0 -8.83105 -7.16895 -16 -16 -16h-64c-8.83105 0 -16 7.16895 -16 16v16c0 8.83105 7.16895 16 16 16h64zM164 64c6.61621 -0.0078125 11.9863 -5.38477 11.9863 -12.0039c0 -3.1875 -1.24609 -6.08594 -3.27637 -8.23633
l-68 -72c-2.18848 -2.31445 -5.28613 -3.75977 -8.71973 -3.75977s-6.53223 1.44531 -8.7207 3.75977l-68 72c-2.03027 2.15039 -3.27637 5.05273 -3.27637 8.24023c0 6.62305 5.37695 12 12 12h0.00683594h44v336c0 8.83105 7.16895 16 16 16h16
c8.83105 0 16 -7.16895 16 -16v-336h44zM432 264c8.83105 0 16 -7.16895 16 -16v-16c0 -8.83105 -7.16895 -16 -16 -16h-192c-8.83105 0 -16 7.16895 -16 16v16c0 8.83105 7.16895 16 16 16h192zM496 360c8.83105 0 16 -7.16895 16 -16v-16c0 -8.83105 -7.16895 -16 -16 -16
h-256c-8.83105 0 -16 7.16895 -16 16v16c0 8.83105 7.16895 16 16 16h256zM368 168c8.83105 0 16 -7.16895 16 -16v-16c0 -8.83105 -7.16895 -16 -16 -16h-128c-8.83105 0 -16 7.16895 -16 16v16c0 8.83105 7.16895 16 16 16h128z" />
    <glyph glyph-name="sort-amount-up" unicode="&#xf161;" horiz-adv-x="512" 
d="M304 72c8.83105 0 16 -7.16895 16 -16v-16c0 -8.83105 -7.16895 -16 -16 -16h-64c-8.83105 0 -16 7.16895 -16 16v16c0 8.83105 7.16895 16 16 16h64zM28 320c-6.61621 0.0078125 -11.9863 5.38477 -11.9863 12.0039c0 3.1875 1.24609 6.08594 3.27637 8.23633l68 72
c2.18848 2.31445 5.28613 3.75977 8.71973 3.75977s6.53223 -1.44531 8.7207 -3.75977l68 -72c2.03027 -2.15039 3.27637 -5.05273 3.27637 -8.24023c0 -6.62305 -5.37695 -12 -12 -12h-0.00683594h-44v-336c0 -8.83105 -7.16895 -16 -16 -16h-16
c-8.83105 0 -16 7.16895 -16 16v336h-44zM432 264c8.83105 0 16 -7.16895 16 -16v-16c0 -8.83105 -7.16895 -16 -16 -16h-192c-8.83105 0 -16 7.16895 -16 16v16c0 8.83105 7.16895 16 16 16h192zM496 360c8.83105 0 16 -7.16895 16 -16v-16
c0 -8.83105 -7.16895 -16 -16 -16h-256c-8.83105 0 -16 7.16895 -16 16v16c0 8.83105 7.16895 16 16 16h256zM368 168c8.83105 0 16 -7.16895 16 -16v-16c0 -8.83105 -7.16895 -16 -16 -16h-128c-8.83105 0 -16 7.16895 -16 16v16c0 8.83105 7.16895 16 16 16h128z" />
    <glyph glyph-name="sort-numeric-down" unicode="&#xf162;" 
d="M400 272c8.83105 0 16 -7.16895 16 -16v-16c0 -8.83105 -7.16895 -16 -16 -16h-96c-8.83105 0 -16 7.16895 -16 16v16c0 8.83105 7.16895 16 16 16h24v80h-24c-8.83105 0 -15.9922 7.18652 -15.9922 16.0166c0 3.10645 0.887695 6.00781 2.42188 8.46387l20 32
c2.82812 4.52441 7.84668 7.51953 13.5703 7.51953h36c8.83105 0 16 -7.16895 16 -16v-128h24zM344 192c39.7178 -0.0439453 71.9561 -32.2822 72 -72v-45.3799c-0.0722656 -53.165 -38.6709 -97.3994 -89.29 -106.38
c-0.885742 -0.152344 -1.78125 -0.232422 -2.70996 -0.232422c-8.83105 0 -16 7.16895 -16 16v0.0625v16.7695c0 0.0244141 0.0107422 0.046875 0.0107422 0.0712891c0 7.60059 5.36426 13.957 12.5088 15.4893c19.0117 3.99512 34.7109 17.0205 42.3203 34.4199
c-5.98926 -1.74219 -12.3135 -2.72754 -18.8398 -2.82031c-39.7383 0 -72 32.2617 -72 72s32.2617 72 72 72zM344 96c13.2461 0 24 10.7539 24 24s-10.7539 24 -24 24s-24 -10.7539 -24 -24s10.7539 -24 24 -24zM164 64
c6.61621 -0.0078125 11.9863 -5.38477 11.9863 -12.0039c0 -3.1875 -1.24609 -6.08594 -3.27637 -8.23633l-68 -72c-2.18848 -2.31445 -5.28613 -3.75977 -8.71973 -3.75977s-6.53223 1.44531 -8.7207 3.75977l-68 72c-2.03027 2.15039 -3.27637 5.05273 -3.27637 8.24023
c0 6.62305 5.37695 12 12 12h0.00683594h44v336c0 8.83105 7.16895 16 16 16h16c8.83105 0 16 -7.16895 16 -16v-336h44z" />
    <glyph glyph-name="sort-numeric-up" unicode="&#xf163;" 
d="M400 272c8.83105 0 16 -7.16895 16 -16v-16c0 -8.83105 -7.16895 -16 -16 -16h-96c-8.83105 0 -16 7.16895 -16 16v16c0 8.83105 7.16895 16 16 16h24v80h-24c-8.83105 0 -15.9922 7.18652 -15.9922 16.0166c0 3.10645 0.887695 6.00781 2.42188 8.46387l20 32
c2.82812 4.52441 7.84668 7.51953 13.5703 7.51953h36c8.83105 0 16 -7.16895 16 -16v-128h24zM344 192c39.7178 -0.0439453 71.9561 -32.2822 72 -72v-45.3799c-0.0722656 -53.165 -38.6709 -97.3994 -89.29 -106.38
c-0.885742 -0.152344 -1.78125 -0.232422 -2.70996 -0.232422c-8.83105 0 -16 7.16895 -16 16v0.0625v16.7695c0 0.0244141 0.0107422 0.046875 0.0107422 0.0712891c0 7.60059 5.36426 13.957 12.5088 15.4893c19.0117 3.99512 34.7109 17.0205 42.3203 34.4199
c-5.98926 -1.74219 -12.3135 -2.72754 -18.8398 -2.82031c-39.7383 0 -72 32.2617 -72 72s32.2617 72 72 72zM344 96c13.2461 0 24 10.7539 24 24s-10.7539 24 -24 24s-24 -10.7539 -24 -24s10.7539 -24 24 -24zM28 320
c-6.61621 0.0078125 -11.9863 5.38477 -11.9863 12.0039c0 3.1875 1.24609 6.08594 3.27637 8.23633l68 72c2.18848 2.31445 5.28613 3.75977 8.71973 3.75977s6.53223 -1.44531 8.7207 -3.75977l68 -72c2.03027 -2.15039 3.27637 -5.05273 3.27637 -8.24023
c0 -6.62305 -5.37695 -12 -12 -12h-0.00683594h-44v-336c0 -8.83105 -7.16895 -16 -16 -16h-16c-8.83105 0 -16 7.16895 -16 16v336h-44z" />
    <glyph glyph-name="paragraph" unicode="&#xf1dd;" 
d="M415 416c8.83105 0 16 -7.16895 16 -16v-16c0 -8.83105 -7.16895 -16 -16 -16h-32v-384c0 -8.83105 -7.16895 -16 -16 -16h-16c-8.83105 0 -16 7.16895 -16 16v384h-48v-384c0 -8.83105 -7.16895 -16 -16 -16h-16c-8.83105 0 -16 7.16895 -16 16v112h-48
c-88.3066 0 -160 71.6934 -160 160s71.6934 160 160 160h224zM239 144v224h-48c-61.8145 0 -112 -50.1855 -112 -112s50.1855 -112 112 -112h48z" />
    <glyph glyph-name="h1" unicode="&#xf313;" horiz-adv-x="576" 
d="M304 352c8.83105 0 16 -7.16895 16 -16v-18.9404c0 -7.20801 -5.85156 -13.0596 -13.0596 -13.0596h-26.9404v-224h26.9404c7.20801 0 13.0596 -5.85156 13.0596 -13.0596v-18.9404c0 -8.83105 -7.16895 -16 -16 -16h-96c-8.83105 0 -16 7.16895 -16 16v18.9404
c0 7.20801 5.85156 13.0596 13.0596 13.0596h26.9404v88h-144v-88h26.9404c7.20801 0 13.0596 -5.85156 13.0596 -13.0596v-21.8809c0 -7.20801 -5.85156 -13.0596 -13.0596 -13.0596h-98.9404c-8.83105 0 -16 7.16895 -16 16v18.9404
c0 7.20801 5.85156 13.0596 13.0596 13.0596h26.9404v224h-26.9404c-7.20801 0 -13.0596 5.85156 -13.0596 13.0596v18.9404c0 8.83105 7.16895 16 16 16h96c8.83105 0 16 -7.16895 16 -16v-18.9404c0 -7.20801 -5.85156 -13.0596 -13.0596 -13.0596h-26.9404v-88h144v88
h-26.9404c-7.20801 0 -13.0596 5.85156 -13.0596 13.0596v21.8809c0 7.20801 5.85156 13.0596 13.0596 13.0596h98.9404zM560 80c8.83105 0 16 -7.16895 16 -16v-16c0 -8.83105 -7.16895 -16 -16 -16h-160c-8.83105 0 -16 7.16895 -16 16v16c0 8.83105 7.16895 16 16 16h56
v176h-24c-13.2354 0.0126953 -23.9629 10.7852 -23.9629 24.0234c0 3.85059 0.908203 7.49023 2.52246 10.7168l24 48c3.93652 7.86621 12.0547 13.251 21.4404 13.2598h24c13.2461 0 24 -10.7539 24 -24v-248h56z" />
    <glyph glyph-name="h2" unicode="&#xf314;" horiz-adv-x="576" 
d="M304 352c8.83105 0 16 -7.16895 16 -16v-18.9404c0 -7.20801 -5.85156 -13.0596 -13.0596 -13.0596h-26.9404v-224h26.9404c7.20801 0 13.0596 -5.85156 13.0596 -13.0596v-18.9404c0 -8.83105 -7.16895 -16 -16 -16h-96c-8.83105 0 -16 7.16895 -16 16v18.9404
c0 7.20801 5.85156 13.0596 13.0596 13.0596h26.9404v88h-144v-88h26.9404c7.20801 0 13.0596 -5.85156 13.0596 -13.0596v-21.8809c0 -7.20801 -5.85156 -13.0596 -13.0596 -13.0596h-98.9404c-8.83105 0 -16 7.16895 -16 16v18.9404
c0 7.20801 5.85156 13.0596 13.0596 13.0596h26.9404v224h-26.9404c-7.20801 0 -13.0596 5.85156 -13.0596 13.0596v18.9404c0 8.83105 7.16895 16 16 16h96c8.83105 0 16 -7.16895 16 -16v-18.9404c0 -7.20801 -5.85156 -13.0596 -13.0596 -13.0596h-26.9404v-88h144v88
h-26.9404c-7.20801 0 -13.0596 5.85156 -13.0596 13.0596v21.8809c0 7.20801 5.85156 13.0596 13.0596 13.0596h98.9404zM548.14 79.8701c6.54004 0 11.8604 -5.30957 11.8604 -11.8496v-0.0205078v-24.1797c-0.0166016 -6.52344 -5.31445 -11.8145 -11.8398 -11.8203h-183
c-5.94824 0.107422 -10.8652 4.49902 -11.7998 10.21c-0.871094 6.06055 -1.34082 12.1318 -1.39062 18.4199c0 111.49 149.45 128.49 149.45 195.49c0 26.9199 -19.8604 45 -49.4297 45c-22.1406 0 -40.7207 -13.1201 -53.7207 -31.3506
c-2.15625 -3.02637 -5.69922 -4.9834 -9.69531 -4.9834c-2.42969 0 -4.69043 0.730469 -6.57422 1.9834l-21.29 14.2305c-3.18945 2.11523 -5.27441 5.74414 -5.27441 9.85449c0 2.22949 0.619141 4.31543 1.69434 6.0957c20.1279 33.0547 56.4277 55.0303 97.9199 55.0498
c59.9502 0 101.75 -38.1699 101.771 -92.8203c0 -100.029 -137.48 -118.96 -146 -179.31h137.319z" />
    <glyph glyph-name="h3" unicode="&#xf315;" horiz-adv-x="576" 
d="M480.07 228.22c48.0801 -8.89941 84.8193 -41.9697 84.8096 -93.0693c0 -56.9502 -45.6602 -103.17 -109.86 -103.17c-38.7598 0 -74.7793 15.6592 -99.3799 39c-2.24902 2.1377 -3.64258 5.16797 -3.64258 8.5127c0 2.57715 0.832031 4.96094 2.24316 6.89648l16 22
c2.18262 2.99219 5.71387 4.9248 9.69727 4.9248c3.10254 0 5.93164 -1.17969 8.0625 -3.11426c18.4102 -16.4307 41.29 -26.8906 65.29 -26.8906c32.5898 0 57.1699 21.5605 57.1699 50.1309c0 23.3291 -17.2402 50.5596 -65.8496 50.5596h-17.0801
c-4.79395 0.243164 -8.9043 3.08789 -10.9307 7.16016l-6.70996 15.2998c-0.638672 1.44238 -0.99707 3.05371 -0.99707 4.73242c0 2.9248 1.07812 5.59863 2.85742 7.64746c0 0 71.3496 82.7002 74.1201 85.5801c-3.56055 -0.139648 -105.979 -0.25 -106 -0.25
s-0.0400391 0.000976562 -0.0605469 0.000976562c-6.53906 0 -11.8525 5.2959 -11.8799 11.8291v24.1797c0.0332031 6.5293 5.34277 11.8203 11.8789 11.8203h0.0615234h166.57c0.0195312 0 0.0390625 -0.000976562 0.0595703 -0.000976562
c6.53906 0 11.8516 -5.28906 11.8896 -11.8193v-18.3193c-0.00683594 -2.96875 -1.11328 -5.6875 -2.92969 -7.76074zM304 352c8.83105 0 16 -7.16895 16 -16v-18.9404c0 -7.20801 -5.85156 -13.0596 -13.0596 -13.0596h-26.9404v-224h26.9404
c7.20801 0 13.0596 -5.85156 13.0596 -13.0596v-18.9404c0 -8.83105 -7.16895 -16 -16 -16h-96c-8.83105 0 -16 7.16895 -16 16v18.9404c0 7.20801 5.85156 13.0596 13.0596 13.0596h26.9404v88h-144v-88h26.9404c7.20801 0 13.0596 -5.85156 13.0596 -13.0596v-21.8809
c0 -7.20801 -5.85156 -13.0596 -13.0596 -13.0596h-98.9404c-8.83105 0 -16 7.16895 -16 16v18.9404c0 7.20801 5.85156 13.0596 13.0596 13.0596h26.9404v224h-26.9404c-7.20801 0 -13.0596 5.85156 -13.0596 13.0596v18.9404c0 8.83105 7.16895 16 16 16h96
c8.83105 0 16 -7.16895 16 -16v-18.9404c0 -7.20801 -5.85156 -13.0596 -13.0596 -13.0596h-26.9404v-88h144v88h-26.9404c-7.20801 0 -13.0596 5.85156 -13.0596 13.0596v21.8809c0 7.20801 5.85156 13.0596 13.0596 13.0596h98.9404z" />
    <glyph glyph-name="alarm-clock" unicode="&#xf34e;" horiz-adv-x="512" 
d="M256 384c123.7 0 224 -100.29 224 -224c0 -0.015625 -0.104492 -0.216797 -0.104492 -0.232422c0 -50.1836 -16.6348 -96.5117 -44.6855 -133.768l40.1396 -40.0596c2.89746 -2.89648 4.69043 -6.90137 4.69043 -11.3174s-1.79297 -8.41699 -4.69043 -11.3135
l-22.6191 -22.6191c-2.89648 -2.89746 -6.90137 -4.69043 -11.3174 -4.69043s-8.41699 1.79297 -11.3135 4.69043l-40.0996 40.0898c-37.2715 -28.0547 -83.9873 -44.6904 -134.186 -44.6904c-50.1992 0 -96.543 16.6357 -133.814 44.6904l-40.0996 -40.1201
c-2.89648 -2.89453 -6.89941 -4.68457 -11.3125 -4.68457s-8.41211 1.79004 -11.3076 4.68457l-22.6299 22.6201c-2.89746 2.89648 -4.69043 6.90137 -4.69043 11.3174s1.79297 8.41602 4.69043 11.3125l40.0996 40.0898c-28.0264 37.2461 -44.75 83.7363 -44.75 133.895
v0.105469c0 123.71 100.26 224 224 224zM256 -16c97.1367 0 176 78.8633 176 176s-78.8633 176 -176 176s-176 -78.8633 -176 -176s78.8633 -176 176 -176zM96 448c25.1729 -0.00195312 48.1172 -9.75586 65.2002 -25.6797l-145.9 -121.58
c-9.57422 14.7402 -15.2236 32.4072 -15.2998 51.2598c0 52.9834 43.0166 96 96 96zM280 155.53l58.5098 -46.7607c1.84082 -1.46582 3.0127 -3.72852 3.0127 -6.2627c0 -1.89453 -0.660156 -3.63574 -1.7627 -5.00684l-20 -25
c-1.28906 -1.61035 -3.19238 -2.70703 -5.34961 -2.9502c-0.227539 -0.0175781 -0.456055 -0.0224609 -0.688477 -0.0224609c-1.94531 0 -3.74121 0.648438 -5.18164 1.74219l-64.54 51.5703c-7.32715 5.86621 -12 14.873 -12 24.9795v0.0205078v132.16
c0 4.41504 3.58496 8 8 8h32c4.41504 0 8 -3.58496 8 -8v-124.47zM416 448c52.9834 0 96 -43.0166 96 -96c-0.0820312 -18.8398 -5.72559 -36.4961 -15.29 -51.2305l-145.89 121.57c17.082 15.9111 40.0186 25.6553 65.1797 25.6602z" />
    <glyph glyph-name="chess" unicode="&#xf439;" horiz-adv-x="512" 
d="M497.59 168.83l-25.5898 -20.3896v-74.8203c4.88184 -4.31543 7.96191 -10.6084 8 -17.6201v-24l25.5996 -19.2002c3.89355 -2.91992 6.40039 -7.56348 6.40039 -12.7998v-48c0 -8.83105 -7.16895 -16 -16 -16h-224c-8.83105 0 -16 7.16895 -16 16
c0 -8.83105 -7.16895 -16 -16 -16h-224c-8.83105 0 -16 7.16895 -16 16v48c0 5.23633 2.50684 9.87988 6.40039 12.7998l25.5996 19.2002v24c0 11.2695 7.92969 20.29 18.4004 22.9004c3.7998 24.8691 6.35938 49.9297 6.35938 75.0996v38h-8.75977
c-8.83105 0 -16 7.16895 -16 16v16c0 8.83105 7.16895 16 16 16h4.71973l-27 80.4102c-0.794922 2.38477 -1.23145 4.93945 -1.23145 7.58984c0 13.2461 10.7539 24 24 24h0.0117188h64.2598v32h-24c-4.41504 0 -8 3.58496 -8 8v16c0 4.41504 3.58496 8 8 8h24v24
c0 4.41504 3.58496 8 8 8h16c4.41602 0 8 -3.58496 8 -8v-24h24c4.41602 0 8 -3.58496 8 -8v-16c0 -4.41504 -3.58398 -8 -8 -8h-24v-32h64.2402c0.0146484 0 0.0214844 -0.00390625 0.0351562 -0.00390625c13.2461 0 24 -10.7539 24 -24
c0 -2.65039 -0.429688 -5.20117 -1.22559 -7.58594l-26.9092 -80.4102h3.09961c8.83105 0 16 -7.16895 16 -16v-16c0 -8.83105 -7.16895 -16 -16 -16h-7.24023v-38.0303c0 -25.2793 2.57031 -50.4199 6.41016 -75.4199c9.68848 -2.94336 16.7607 -11.9209 16.8301 -22.5498
v-24l25.5996 -19.2002c3.89355 -2.91992 6.40039 -7.56348 6.40039 -12.7998c0 5.23633 2.50684 9.87988 6.40039 12.7998l25.5996 19.2002v24c0.0380859 7.01172 3.11816 13.3047 8 17.6201v74.7695l-27.25 21.5908c-7.28027 4.51953 -12.75 14.5996 -12.75 25.5195v60.5
c0 17.6611 14.3389 32 32 32h192c17.6611 0 32 -14.3389 32 -32v-60.4404c0 -0.0136719 0.0332031 -0.0078125 0.0332031 -0.0214844c0 -11.167 -5.74805 -21.0029 -14.4434 -26.708zM175.71 304h-93.8398l16.3496 -48.7197l5.14062 -15.2803h50.9199l5.09961 15.2402z
M158.71 80c-3.54004 25.1904 -5.9502 50.0801 -5.9502 74v38h-48v-38c0 -23.8799 -2.38965 -48.7803 -5.93945 -74h59.8896zM48 -16h160l-12.7998 9.59961l-19.2002 14.4004v24h-96v-24l-19.2002 -14.4004zM304 -16h160l-12.7998 9.59961l-19.2002 14.4004v24h-96v-24
l-19.2002 -14.4004zM464 203.33v36.6699h-32v-24h-32v24h-32v-24h-32v24h-32v-36.8301l40 -31.5596v-91.6104h80v91.5898zM384 160c8.83105 0 16 -7.16895 16 -16v-32h-32v32c0 8.83105 7.16895 16 16 16z" />
    <glyph glyph-name="chess-bishop" unicode="&#xf43a;" horiz-adv-x="320" 
d="M304 -16c8.83105 0 16 -7.16895 16 -16v-16c0 -8.83105 -7.16895 -16 -16 -16h-288c-8.83105 0 -16 7.16895 -16 16v16c0 8.83105 7.16895 16 16 16h288zM0 144c0 73.3799 67.8096 197.2 120.6 241.49c-14 3.41992 -24.5996 15.5098 -24.5996 30.5098
c0 17.6611 14.3389 32 32 32h64c17.6611 0 32 -14.3389 32 -32c0 -15.0498 -10.5996 -27.0898 -24.5996 -30.5098c52.79 -44.29 120.6 -168.11 120.6 -241.49c0 -51.6396 -30.1396 -85.2402 -64 -96v-32h-48v67.1104l33.46 10.6396
c14.7598 4.69043 30.54 20.3496 30.54 50.25c0 20.46 -7.62988 47.2998 -19.0596 75l-54.3203 -54.3096c-2.89551 -2.89453 -6.89941 -4.68555 -11.3125 -4.68555s-8.41211 1.79102 -11.3076 4.68555l-11.3096 11.3096c-2.89453 2.89551 -4.68555 6.89844 -4.68555 11.3125
c0 4.41309 1.79102 8.41211 4.68555 11.3076l66.1299 66.1299c-25.2207 45.8096 -46.5801 69.5303 -59.2207 81.3301c-2.84766 2.76562 -6.73633 4.4707 -11.0156 4.4707c-4.40234 0 -8.38672 -1.80371 -11.2539 -4.71094
c-35.2002 -36.0596 -101.33 -127.27 -101.33 -201.84c0 -29.9004 15.7803 -45.5596 30.54 -50.25l33.46 -10.6396v-67.1104h-48v32c-33.8604 10.7598 -64 44.3604 -64 96z" />
    <glyph glyph-name="chess-bishop-alt" unicode="&#xf43b;" horiz-adv-x="256" 
d="M249.6 12.7998c3.89355 -2.91992 6.40039 -7.56348 6.40039 -12.7998v-48c0 -8.83105 -7.16895 -16 -16 -16h-224c-8.83105 0 -16 7.16895 -16 16v48c0 5.23633 2.50684 9.87988 6.40039 12.7998l25.5996 19.2002v24c0 12.0996 9.09961 21.6904 20.7402 23.3398
c1.91992 16.1045 2.99023 32.0918 3.2002 48.6602h-7.94043c-8.83105 0 -16 7.16895 -16 16v16c0.0644531 7.91602 5.97949 14.4561 13.6201 15.5195c-13.6201 10.8906 -21.6201 29.1104 -21.6201 61.1104c0 41.6602 25.8496 100.61 58 132.601
c-10.2695 2.76953 -18 11.71 -18 22.7695c0.0380859 13.2285 10.7715 23.9619 24 24h80c13.2285 -0.0380859 23.9619 -10.7715 24 -24c0 -11.0596 -7.73047 -20 -17.9502 -22.7695c32.1006 -31.9902 57.9502 -90.9404 57.9502 -132.601
c0 -31.96 -8 -50.2197 -21.6201 -61.1104c7.64062 -1.06348 13.5557 -7.60352 13.6201 -15.5195v-16c0 -8.83105 -7.16895 -16 -16 -16h-7.94043c0.209961 -16.5684 1.28027 -32.5557 3.2002 -48.6602c11.6406 -1.66016 20.7402 -11.2402 20.7402 -23.3398v-24z
M115.21 337.61c-25.4004 -31.9502 -43.21 -75.21 -43.21 -100.92v-0.59082c0.148438 -13.7402 5.86035 -26.168 15 -35.0996l9 -9v-16h64v16l9 9c9.14941 8.91895 14.877 21.3369 15.0498 35.0703v0.549805c0 11.1201 -3.81934 25.7002 -9.62012 41l-28.6602 -28.6699
c-1.44824 -1.4502 -3.45117 -2.34766 -5.66016 -2.34766c-2.20996 0 -4.21094 0.897461 -5.65918 2.34766l-13.4502 13.4502c-1.4502 1.44824 -2.34766 3.45117 -2.34766 5.66113c0 2.20898 0.897461 4.20996 2.34766 5.6582l37.5703 37.6201
c-5.31641 9.22168 -11.2295 17.9512 -17.7803 26.2705c-2.98633 3.7793 -7.59766 6.20703 -12.7832 6.20703c-5.18652 0 -9.81055 -2.42773 -12.7969 -6.20703zM154.9 80c-1.58008 16 -2.78027 31.9502 -2.84082 48h-48.1191c-0.0605469 -16.0498 -1.26074 -32 -2.84082 -48
h53.8008zM48 -16h160l-32 24v24h-96v-24z" />
    <glyph glyph-name="chess-board" unicode="&#xf43c;" horiz-adv-x="512" 
d="M448 64h-64v64h64v-64zM448 191.93h-64v64h64v-64zM320.07 0v64h64v-64h-64zM192.13 0v64h64v-64h-64zM64.2002 191.9h64v-64h-64v64zM448 383.8v-64h-64v64h64zM192.13 383.8v-64h-64v64h64zM64.2002 319.8h64v-64h-64v64zM320.07 383.8v-64h-64v64h64zM256.07 127.93
h64v-64h-64v64zM192.07 127.93v-64h-64v64h64zM384 255.87h-64v64h64v-64zM320 127.93v64h64v-64h-64zM256 255.87h-64v64h64v-64zM320 191.87h-64v64h64v-64zM256 191.87v-64h-64v64h64zM192 255.87v-64h-64v64h64zM128 63.9697v-64h-64v64h64zM480 448
c17.6611 0 32 -14.3389 32 -32v-448c0 -17.6611 -14.3389 -32 -32 -32h-448c-17.6611 0 -32 14.3389 -32 32v448c0 17.6611 14.3389 32 32 32h448zM464 -16v416h-416v-416h416z" />
    <glyph glyph-name="chess-clock" unicode="&#xf43d;" horiz-adv-x="640" 
d="M448.22 31.9404c-61.7969 0 -111.972 50.1582 -112 111.949v0.0507812c0 61.8145 50.1855 112 112 112s112 -50.1855 112 -112s-50.1855 -112 -112 -112zM435.55 154.13c-2.18359 -2.17383 -3.53613 -5.18457 -3.53613 -8.50684
c0 -3.32617 1.35645 -6.33887 3.5459 -8.5127l5.65039 -5.66016c2.17285 -2.18066 5.18262 -3.53125 8.50195 -3.53125c3.31836 0 6.3252 1.35059 8.49805 3.53125l50.9102 50.8994c2.18066 2.17383 3.53125 5.18262 3.53125 8.50195s-1.35059 6.3252 -3.53125 8.49805
l-5.66016 5.65039c-2.17285 2.18066 -5.18262 3.53125 -8.50195 3.53125c-3.31836 0 -6.3252 -1.35059 -8.49805 -3.53125zM600 352c22.0762 0 40 -17.9238 40 -40v-336c0 -22.0762 -17.9238 -40 -40 -40h-560c-22.0762 0 -40 17.9238 -40 40v336
c0 22.0762 17.9238 40 40 40h112v48h-40c-8.83105 0 -16 7.16895 -16 16v16c0 8.83105 7.16895 16 16 16h128.08c8.83008 0 16 -7.16895 16 -16v-16c0 -8.83105 -7.16992 -16 -16 -16h-40v-48h184.13v16c0 8.83105 7.16895 16 16 16h128c8.83105 0 16 -7.16895 16 -16v-16
h55.79zM592 -16v320h-544v-320h544zM192.12 32.0898c-61.8145 0 -112 50.1855 -112 112s50.1855 112 112 112s112 -50.1855 112 -112s-50.1855 -112 -112 -112zM176.12 212v-72c0 -6.62305 5.37695 -12 12 -12h8c6.62305 0 12 5.37695 12 12v72
c0 6.62305 -5.37695 12 -12 12h-8c-6.62305 0 -12 -5.37695 -12 -12z" />
    <glyph glyph-name="chess-clock-alt" unicode="&#xf43e;" horiz-adv-x="640" 
d="M600 352c22.0762 0 40 -17.9238 40 -40v-336c0 -22.0762 -17.9238 -40 -40 -40h-560c-22.0762 0 -40 17.9238 -40 40v336c0 22.0762 17.9238 40 40 40h56v16c0 8.83105 7.16895 16 16 16h128c8.83105 0 16 -7.16895 16 -16v-16h184v48h-40c-8.83105 0 -16 7.16895 -16 16
v16c0 8.83105 7.16895 16 16 16h128c8.80273 -0.0332031 15.9404 -7.18945 15.9404 -16v-16c0 -8.83105 -7.16992 -16 -16 -16h-40v-48h112.06zM592 -16v320h-544v-320h544zM192 31.9404c-61.7979 0 -111.973 50.1582 -112 111.949v0.0507812c0 61.8145 50.1855 112 112 112
s112 -50.1855 112 -112s-50.1855 -112 -112 -112zM179.33 154.13c-2.16602 -2.1709 -3.50586 -5.16992 -3.50586 -8.47656c0 -3.31152 1.34375 -6.31152 3.51562 -8.4834l5.66016 -5.66016c2.17285 -2.18066 5.18262 -3.53125 8.50195 -3.53125
c3.31836 0 6.3252 1.35059 8.49805 3.53125l50.8896 50.8398c2.18164 2.17383 3.53125 5.18262 3.53125 8.50195s-1.34961 6.3252 -3.53125 8.49805l-5.64941 5.65039c-2.17383 2.18066 -5.18262 3.53125 -8.50195 3.53125s-6.3252 -1.35059 -8.49805 -3.53125zM448 32.0898
c-61.7842 0 -111.95 50.1377 -112 111.91v0.0898438c0 61.8145 50.1855 112 112 112s112 -50.1855 112 -112s-50.1855 -112 -112 -112zM432 212v-72c0 -6.62305 5.37695 -12 12 -12h8c6.62305 0 12 5.37695 12 12v72c0 6.62305 -5.37695 12 -12 12h-8
c-6.62305 0 -12 -5.37695 -12 -12z" />
    <glyph glyph-name="chess-king" unicode="&#xf43f;" 
d="M400 -16c8.83105 0 16 -7.16895 16 -16v-16c0 -8.83105 -7.16895 -16 -16 -16h-352c-8.83105 0 -16 7.16895 -16 16v16c0 8.83105 7.16895 16 16 16h352zM437.05 265.16c6.88281 -9.22559 10.9736 -20.7158 10.9736 -33.1006
c0 -5.83789 -0.905273 -11.4648 -2.58301 -16.75l-66 -199.31h-50.5508l70.8203 214c0.165039 0.640625 0.254883 1.30859 0.254883 2c0 4.41504 -3.58496 8 -8 8h-0.0351562h-335.93c-4.40723 -0.00976562 -7.98047 -3.59082 -7.98047 -8
c0 -0.829102 0.125977 -1.62793 0.360352 -2.37988l70.6699 -213.62h-50.54l-65.8193 198.94c-1.73242 5.3916 -2.68164 11.1445 -2.68164 17.1094c0 30.8799 25.0703 55.9502 55.9502 55.9502h0.0410156h144v56h-48c-4.41504 0 -8 3.58496 -8 8v32c0 4.41504 3.58496 8 8 8
h48v48c0 4.41504 3.58496 8 8 8h32c4.41504 0 8 -3.58496 8 -8v-48h48c4.41504 0 8 -3.58496 8 -8v-32c0 -4.41504 -3.58496 -8 -8 -8h-48v-56h143.93c0.106445 0.000976562 0.177734 0.0507812 0.28418 0.0507812c18.4307 0 34.7695 -9.02441 44.8359 -22.8906z" />
    <glyph glyph-name="chess-king-alt" unicode="&#xf440;" horiz-adv-x="320" 
d="M281.6 12.7998c3.89355 -2.91992 6.40039 -7.56348 6.40039 -12.7998v-48c0 -8.83105 -7.16895 -16 -16 -16h-224c-8.83105 0 -16 7.16895 -16 16v48c0 5.23633 2.50684 9.87988 6.40039 12.7998l25.5996 19.2002v24c0 11.2695 7.92969 20.29 18.4004 22.9004
c3.7998 24.8691 6.35938 49.9297 6.35938 75.0996v38h-8.75977c-8.83105 0 -16 7.16895 -16 16v16c0 8.83105 7.16895 16 16 16h4.71973l-27 80.4102c-0.794922 2.38477 -1.23145 4.93945 -1.23145 7.58984c0 13.2461 10.7539 24 24 24h0.0117188h64.2598v32h-24
c-4.41504 0 -8 3.58496 -8 8v16c0 4.41504 3.58496 8 8 8h24v24c0 4.41504 3.58496 8 8 8h16c4.41602 0 8 -3.58496 8 -8v-24h24c4.41602 0 8 -3.58496 8 -8v-16c0 -4.41504 -3.58398 -8 -8 -8h-24v-32h64.2402c0.0175781 0 0.0283203 -0.00390625 0.0458984 -0.00390625
c13.2461 0 24 -10.7539 24 -24c0 -2.65039 -0.430664 -5.20117 -1.22559 -7.58594l-26.9199 -80.4102h3.09961c8.83105 0 16 -7.16895 16 -16v-16c0 -8.83105 -7.16895 -16 -16 -16h-7.24023v-38.0303c0 -25.2793 2.58008 -50.4199 6.41016 -75.4199
c9.68848 -2.94336 16.7607 -11.9209 16.8301 -22.5498v-24zM207.72 304h-93.8994l21.5 -64h50.8799zM190.43 80c-3.37988 24.5303 -5.66992 49.2002 -5.66992 74v38h-48v-38c0 -24.7998 -2.29004 -49.4697 -5.66016 -74h59.3301zM80 -16h160l-32 24v24h-96v-24z" />
    <glyph glyph-name="chess-knight" unicode="&#xf441;" horiz-adv-x="384" 
d="M44.0498 127.32c-25.9678 11.5645 -44.0342 37.5625 -44.0498 67.7998v112.34c0 0.046875 0.0292969 0.135742 0.0292969 0.182617c0 9.14258 1.82129 17.8623 5.12109 25.8174c-3.28613 7.56445 -5.14062 15.9551 -5.15039 24.7197
c0.0380859 31.8945 25.9258 57.7822 57.8203 57.8203h105.09c113.09 0 205.02 -92 205 -205.17v-194.83h-48v194.83c0 86.7998 -70.2402 157.17 -157 157.17h-105.09c-5.41992 0 -9.82031 -4.40039 -9.82031 -9.82031
c0.00683594 -2.21289 0.537109 -4.32031 1.45996 -6.17969l11.6299 -23.29l-7.33984 -7.33984c-3.55371 -3.55957 -5.75 -8.47754 -5.75 -13.9004v-112.35c0.00195312 -10.6768 6.38086 -19.8584 15.5498 -23.9404l33.2598 -14.7998
c3.24219 -1.44434 6.86914 -2.24902 10.6445 -2.24902c3.43262 0 6.71191 0.663086 9.71582 1.86914l10.4805 4.21973c7.35547 2.94629 13.0479 9.12305 15.3496 16.7803l7.54004 25.0703c1.40137 5.60938 5.19824 10.2646 10.2598 12.7998l15.2705 9.05957v-58.7793
c0 -15.3857 -8.82031 -28.6963 -21.71 -35.1504l-38.1104 -23.4297c-21.4805 -10.751 -36.1797 -32.9336 -36.1797 -58.5703v-32h-48v32c-0.000976562 0.112305 0.03125 0.286133 0.03125 0.398438c0 27.5889 9.90918 52.8818 26.3584 72.5117zM80.0703 284
c0 11.0381 8.96094 20 20 20c11.0381 0 20 -8.96191 20 -20s-8.96191 -20 -20 -20c-11.0391 0 -20 8.96191 -20 20zM368 -16c8.83105 0 16 -7.16895 16 -16v-16c0 -8.83105 -7.16895 -16 -16 -16h-352c-8.83105 0 -16 7.16895 -16 16v16c0 8.83105 7.16895 16 16 16h352z
" />
    <glyph glyph-name="chess-knight-alt" unicode="&#xf442;" horiz-adv-x="320" 
d="M89.6904 252.8c-7.625 0.0166016 -13.8105 6.21094 -13.8105 13.8398v0.0302734c0 7.65527 6.21582 13.8701 13.8711 13.8701s13.8701 -6.21484 13.8701 -13.8701s-6.21484 -13.8701 -13.8701 -13.8701h-0.0605469zM313.6 12.7998
c3.89355 -2.91992 6.40039 -7.56348 6.40039 -12.7998v-48c0 -8.83105 -7.16895 -16 -16 -16h-288c-8.83105 0 -16 7.16895 -16 16v48c0 5.23633 2.50684 9.87988 6.40039 12.7998l25.5996 19.2002v4.42969c-9.94922 12.8027 -15.9102 28.8652 -15.9102 46.3184
c0 3.65039 0.258789 7.23926 0.759766 10.752c2.95996 19.6201 9.69336 36.793 20.2002 51.5195c-21.9883 11.2334 -36.9922 34.0654 -37 60.4307v84.8398c0 0.0986328 0.0146484 0.199219 0.0146484 0.297852c0 6.72168 1.06836 13.1963 3.0459 19.2617
c-2.03906 5.78516 -3.16211 12.0225 -3.16211 18.501c0 30.6543 24.8398 55.5527 55.4717 55.6494h80c92.96 0 168.58 -75.6396 168.58 -168.61v-106.13c-0.0957031 -17.667 -6.06348 -34.0361 -16 -47.1299v-30.1299zM55.4297 336
c-5.14941 0 -9.58984 -5.46973 -6.29004 -12.0996l8.70996 -17.6104c-5.45996 -5.4502 -9.84961 -8.62988 -9.84961 -16v-84.8398c0.0146484 -8.08105 4.8584 -15.0264 11.8096 -18.1006l25 -11.1494c2.3418 -1.08887 4.96582 -1.7168 7.70996 -1.74023
c5.26074 0 9.94043 2.38965 15.4805 4.61035c5.51172 2.24707 9.76758 6.90625 11.4805 12.6699l5.67969 18.9502c1.05469 4.23438 3.90918 7.75098 7.71973 9.67969l27.1201 4.7002v-48.2607c-0.015625 -10.0439 -6.00488 -18.6826 -14.6201 -22.5498l-34.8496 -10.8594
c-24.7002 -11.1104 -41.8398 -28 -46.1807 -57c-0.330078 -2.16992 0.260742 -4.26074 0.450195 -6.40039h175.2l6.62988 6.62988c5.79102 5.79199 9.37012 13.8008 9.37012 22.6299v106.13c0 66.3408 -54.2598 120.61 -120.57 120.61h-80zM48 -16h224l-32 24v24h-160v-24z
" />
    <glyph glyph-name="chess-pawn" unicode="&#xf443;" horiz-adv-x="320" 
d="M304 -16c8.83105 0 16 -7.16895 16 -16v-16c0 -8.83105 -7.16895 -16 -16 -16h-288c-8.83105 0 -16 7.16895 -16 16v16c0 8.83105 7.16895 16 16 16h288zM48 160c-8.83105 0 -16 7.16895 -16 16v16c0 8.83105 7.16895 16 16 16h31c-23.8398 21.9297 -39 53.0801 -39 88
c0 66.2295 53.7705 120 120 120s120 -53.7705 120 -120c0 -34.9199 -15.2002 -66.0703 -39 -88h31c8.83105 0 16 -7.16895 16 -16v-16c0 -8.83105 -7.16895 -16 -16 -16h-32v-29.5c0 -40.29 3.50977 -81.2305 23.4297 -114.5h-53.5693
c-14.9502 37.0098 -17.8604 77.3496 -17.8604 114.5v29.5h-64v-29.5c0 -37.1504 -2.86035 -77.5 -17.8604 -114.5h-53.5693c19.9199 33.2695 23.4297 74.21 23.4297 114.5v29.5h-32zM160 368c-39.7178 -0.0439453 -71.9561 -32.2822 -72 -72c0 -39.7383 32.2617 -72 72 -72
s72 32.2617 72 72s-32.2617 72 -72 72z" />
    <glyph glyph-name="chess-pawn-alt" unicode="&#xf444;" horiz-adv-x="256" 
d="M249.6 12.7998c3.89355 -2.91992 6.40039 -7.56348 6.40039 -12.7998v-48c0 -8.83105 -7.16895 -16 -16 -16h-224c-8.83105 0 -16 7.16895 -16 16v48c0 5.23633 2.50684 9.87988 6.40039 12.7998l25.5996 19.2002v24c0 13.2461 10.7539 24 24 24h-2.61035
c1.54004 16 2.61035 32 2.61035 48v32h-8c-8.83105 0 -16 7.16895 -16 16v16c0.0625 7.90234 5.95801 14.4326 13.5801 15.5098c-8.58301 14.373 -13.5771 31.29 -13.5771 49.2324c0 52.9844 43.0156 96 96 96c52.9834 0 96 -43.0156 96 -96
c0 -0.24707 -0.000976562 -0.495117 -0.00292969 -0.742188c-0.0849609 -17.7021 -5.08301 -34.377 -13.6104 -48.54c7.625 -1.0498 13.5342 -7.56641 13.6104 -15.46v-16c0 -8.83105 -7.16895 -16 -16 -16h-8v-32c0 -16 1.07031 -32 2.61035 -48h-2.61035
c13.2461 0 24 -10.7539 24 -24v-24zM152 160h-48v-30c0 -16.7197 -1 -33.3799 -2.54004 -50h53.0801c-1.54004 16.6504 -2.54004 33.3096 -2.54004 50v30zM128 304c-26.4795 -0.0273438 -47.9727 -21.5205 -48 -48c0 -26.4922 21.5078 -48 48 -48s48 21.5078 48 48
s-21.5078 48 -48 48zM48 -16h160l-32 24v24h-96v-24z" />
    <glyph glyph-name="chess-queen" unicode="&#xf445;" horiz-adv-x="512" 
d="M256 336c-30.9072 0 -56 25.0928 -56 56s25.0928 56 56 56s56 -25.0928 56 -56s-25.0928 -56 -56 -56zM504.87 263.84c4.30566 -2.86816 7.11914 -7.77344 7.11914 -13.3311c0 -2.56445 -0.604492 -4.98926 -1.67969 -7.13867l-108.149 -227.37h-53.1602l93 195.55
c-8.24219 -2.30469 -16.9072 -3.5498 -25.8809 -3.5498h-0.119141c-6.14453 0.00585938 -12.0762 0.575195 -17.9102 1.66016c-29.4902 5.45996 -53.71 24.6396 -67 50.6396c-17.5557 -22.1523 -44.6182 -36.373 -75.0518 -36.373
c-30.4971 0 -57.6865 14.2803 -75.2383 36.5137c-15.1299 -29.2207 -44.1699 -49.9102 -78.2295 -52.2207c-2.2002 -0.149414 -4.40039 -0.219727 -6.57031 -0.219727c-9.05273 0.00585938 -17.7969 1.29883 -26.0898 3.67969l93.0898 -195.68h-53.1602l-108.149 227.33
c-1.0752 2.14941 -1.70508 4.58008 -1.70508 7.14453c0 5.55762 2.83887 10.457 7.14453 13.3252l28.5703 16c2.41699 1.62988 5.34277 2.58984 8.47461 2.58984h0.00488281c5.60352 -0.104492 10.5508 -2.88379 13.6104 -7.12988
c8.64844 -11.7051 22.5215 -19.2598 38.1777 -19.2598h0.0322266c1.09961 0 2.20996 0.0400391 3.33008 0.110352c25.6699 1.73926 44.6699 24.7998 44.6699 50.4893c0 7.39648 6.00391 13.4004 13.4004 13.4004h38.7695c6.04004 0 11.6104 -3.99023 12.8604 -9.91016
c4.57715 -21.7363 23.8789 -38.0752 46.9688 -38.0752s42.3936 16.3389 46.9707 38.0752c1.25 5.91016 6.86035 9.91016 12.8604 9.91016h38.7695c7.39648 0 13.4004 -6.00391 13.4004 -13.4004c0 -23.5293 15.7002 -45.46 38.8398 -49.75
c2.98438 -0.552734 6.01855 -0.84375 9.16016 -0.849609c0.00683594 0 -0.00976562 -0.0400391 -0.00292969 -0.0400391c15.5781 0 29.4131 7.51758 38.0732 19.1201c3.12109 4.31152 8.14648 7.1377 13.8398 7.26953c3.12305 0 6.04102 -0.960938 8.4502 -2.58984zM432 -16
c8.83105 0 16 -7.16895 16 -16v-16c0 -8.83105 -7.16895 -16 -16 -16h-352c-8.83105 0 -16 7.16895 -16 16v16c0 8.83105 7.16895 16 16 16h352z" />
    <glyph glyph-name="chess-queen-alt" unicode="&#xf446;" horiz-adv-x="256" 
d="M223.67 32l25.5801 -19.2002c3.88672 -2.91992 6.38965 -7.56055 6.38965 -12.792v-0.0078125v-48c0 -8.83105 -7.16895 -16 -16 -16h-223.64c-8.83105 0 -16 7.16895 -16 16v48c0 0.00292969 -0.0136719 -0.00292969 -0.0136719 0
c0 5.23145 2.5166 9.87988 6.40332 12.7998l25.6104 19.2002v24c0 11.5 8.21973 20.6504 19 23c3.12012 22.2402 5.33008 44.5596 5.33008 67v46h-24c-8.83105 0 -16 7.16895 -16 16v16c0 8.83105 7.16895 16 16 16h7.5l-38.5898 105
c-0.541016 1.09082 -0.858398 2.32227 -0.858398 3.62109c0 2.82324 1.43652 5.31348 3.61816 6.7793l12.1797 8.08984c4.02051 2.68945 8.79004 0.969727 11.2305 -2.31055c13.8301 -18.5498 43.8301 -9.31934 43.8301 16c0 3.76465 3.05566 6.82031 6.81934 6.82031h19.71
c0.0488281 0.000976562 0.0947266 -0.000976562 0.144531 -0.000976562c3.08789 0 5.68359 -2.12988 6.39551 -4.99902c2.32031 -11.0576 12.1367 -19.3721 23.8799 -19.3721s21.5605 8.31445 23.8809 19.3721c0.71582 2.87012 3.31055 5.00098 6.40039 5.00098
c0.046875 0 0.0927734 0 0.139648 -0.000976562h19.71h0.0292969c3.75781 0 6.80957 -3.04492 6.82031 -6.7998c0 -25.0605 29.7598 -34.71 43.7598 -16.0605c2.7207 3.62988 7.53027 4.91992 11.3301 2.39062l12.1504 -8.11035
c2.18555 -1.46484 3.6123 -3.95996 3.6123 -6.78613c0 -1.30566 -0.306641 -2.53906 -0.852539 -3.63379l-38.5898 -105h7.5c8.83008 0 16 -7.16895 16 -16v-16c0 -8.83105 -7.16992 -16 -16 -16h-24v-46.0303c0 -22.4893 2.21973 -44.8701 5.33984 -67.1299
c10.3896 -2.62988 18.25 -11.6201 18.25 -22.8398v-24zM93.2598 320.64c-7.64648 -6.57617 -16.7471 -11.5674 -26.6895 -14.4492l22.8896 -66.1904h77.46l22.8701 66.1299c-9.99707 2.8418 -19.1475 7.83203 -26.8203 14.4297
c-10.2861 -5.70508 -22.2725 -8.95508 -34.8594 -8.95508c-12.6445 0 -24.5303 3.28027 -34.8506 9.03516zM156.92 80c-2.78027 21.9004 -4.76953 43.8896 -4.76953 66v46h-47.9199v-46c0 -22.1104 -1.99023 -44.0996 -4.77051 -66h57.46zM47.9199 -16h159.76l-31.9492 24
v24h-95.8604v-24zM128.19 392c-15.4541 0 -28 12.5459 -28 28s12.5459 28 28 28c15.4531 0 28 -12.5459 28 -28s-12.5469 -28 -28 -28z" />
    <glyph glyph-name="chess-rook" unicode="&#xf447;" horiz-adv-x="384" 
d="M368 -16c8.83105 0 16 -7.16895 16 -16v-16c0 -8.83105 -7.16895 -16 -16 -16h-352c-8.83105 0 -16 7.16895 -16 16v16c0 8.83105 7.16895 16 16 16h352zM346 416c20.9727 0 38 -17.0273 38 -38v-139.43c-0.00195312 -9.63477 -4.25391 -18.2725 -11 -24.1406l-37 -32.21
c0 -48.2197 -1.53027 -93.0293 11.8604 -166.22h-49c-12.8604 75.4004 -10.8604 123 -10.8604 193.78l48 41.7793v116.44h-64v-48h-48v48h-64v-48h-48v48h-64v-116.44l48 -41.7793c0 -71.3105 2 -118.19 -10.8496 -193.78h-49
c13.3896 73.2197 11.8496 117.73 11.8496 166.22l-37 32.21c-6.74609 5.86816 -10.998 14.5059 -11 24.1406v139.43c0 20.9727 17.0273 38 38 38h308zM192 224c17.6611 0 32 -14.3389 32 -32v-64h-64v64c0 17.6611 14.3389 32 32 32z" />
    <glyph glyph-name="chess-rook-alt" unicode="&#xf448;" horiz-adv-x="320" 
d="M313.6 12.7998c3.89355 -2.91992 6.40039 -7.56348 6.40039 -12.7998v-48c0 -8.83105 -7.16895 -16 -16 -16h-288c-8.83105 0 -16 7.16895 -16 16v48c0 5.23633 2.50684 9.87988 6.40039 12.7998l25.5996 19.2002v24c0 11.1699 7.79004 20.1396 18.1299 22.7695
l5.33984 117.601l-26.6895 20.0498c-7.77344 5.83984 -12.7783 15.1191 -12.7803 25.5801v110c0 17.6611 14.3389 32 32 32h224c17.6611 0 32 -14.3389 32 -32v-109.86c-0.00195312 -10.4424 -4.98926 -19.708 -12.7402 -25.5498l-26.7295 -20.1494l5.33984 -117.631
c10.3398 -2.66992 18.1299 -11.6396 18.1299 -22.8096v-24zM64 336v-85.9404l40.5303 -30.4697l-6.08008 -139.59h123.1l-6.08008 139.56l40.5303 30.5605v85.8799h-40v-32h-32v32h-48v-32h-32v32h-40zM48 -16h224l-32 24v24h-160v-24zM184 200.41v-40.4102h-47.1797
v40.4102c0 13.0195 10.5703 23.5898 23.5898 23.5898s23.5898 -10.5703 23.5898 -23.5898z" />
    <glyph glyph-name="user-lock" unicode="&#xf502;" horiz-adv-x="640" 
d="M496 16c-17.6611 0 -32 14.3389 -32 32s14.3389 32 32 32s32 -14.3389 32 -32s-14.3389 -32 -32 -32zM304 -16c0 -17.2998 -1.09961 -30 6.7998 -48h-262.8c-26.4922 0 -48 21.5078 -48 48v25.5996c0.0166016 74.1699 60.2305 134.384 134.4 134.4
c28.7998 0 42.5 -16 89.5996 -16c41.5 0 55.2998 12.2002 81.5 15.0996c-0.947266 -4.91211 -1.46094 -9.92188 -1.5 -15.0996v-33.5996c-10.5 -2.7002 -37.7002 -14.4004 -80 -14.4004c-51.2998 0 -75 16 -89.5996 16
c-47.6475 -0.0820312 -86.3184 -38.7529 -86.4004 -86.4004v-25.5996h256zM608 160c17.6611 0 32 -14.3389 32 -32v-160c0 -17.6611 -14.3389 -32 -32 -32h-224c-17.6611 0 -32 14.3389 -32 32v160c0 17.6611 14.3389 32 32 32h32v48c0 44.1533 35.8467 80 80 80
s80 -35.8467 80 -80v-48h32zM464 208v-48h64v48c0 17.6611 -14.3389 32 -32 32s-32 -14.3389 -32 -32zM592 -16v128h-192v-128h192zM224 448c79.4756 0 144 -64.5244 144 -144s-64.5244 -144 -144 -144s-144 64.5244 -144 144s64.5244 144 144 144zM224 208
c52.9453 0.0830078 95.917 43.0547 96 96c0 52.9834 -43.0166 96 -96 96s-96 -43.0166 -96 -96s43.0166 -96 96 -96z" />
    <glyph glyph-name="mind-share" unicode="&#xf677;" horiz-adv-x="640" 
d="M635 108.2c6.7002 -6.60059 6.7002 -17.7998 0.0996094 -24.5l-96 -95.2002c-10.0996 -10 -27 -2.59961 -27 12.2002v47.2002h-64c-65.8994 0 -69.2998 -68.1006 -60.2998 -94.7002c3.7998 -11.2002 -8 -20.9004 -17.7998 -14.4004
c-35 23.4004 -56.0996 66.2002 -48.2998 112.9c7.7998 47 46.2998 84.5996 93.3994 91.5c5.80078 0.899414 11.4004 0.799805 17 0.799805h79.9004v47.2002c0 14.7998 16.9004 22.2002 27 12.2002zM290 57c-7.2002 -43.5996 5.7998 -87.2998 33.7998 -119.5
c-20.3994 3.2002 -38.5 12.9004 -51.8994 27.2998c-16.4004 -17.5996 -39.6006 -28.7998 -65.6006 -28.7998c-31.8994 0 -60.8994 16.9004 -76.7998 43.5996c-47.2998 2.10059 -85.2998 40.8008 -85.7998 88.3008c-27 17.5996 -43.7002 47.5996 -43.7002 80.5996
c0 27.2998 11.9004 53.2002 32.0996 71.2002c-1.89941 7.59961 -2.89941 15.2998 -2.89941 23c0 33 16.5996 63 43.7002 80.5996c0.399414 39.7002 29.3994 72.7998 67.5 79.7998c13.6992 27.1006 41.8994 44.9004 73.2998 44.9004
c0.0351562 0 0.0800781 0.0117188 0.115234 0.0117188c22.71 0 43.2852 -9.21777 58.1846 -24.1113c14.9004 14.8994 35.5 24.0996 58.2998 24.0996c31.5 0 59.6006 -17.7998 73.2002 -44.5996c38.0996 -7 67.0996 -40.1006 67.5 -79.8008
c27 -17.5996 43.7002 -47.5996 43.7002 -80.5996c0 -1.7002 -0.600586 -3.40039 -0.700195 -5.09961c-19.7002 -6.10059 -34.2002 -24.5 -34.2002 -46.5v-7.80078c-2.7002 2.40039 -5.39941 4.90039 -8.89941 6.90039l-19.5 11.2002l9.89941 20.0996
c17.6006 35.7002 -11.3994 60.2998 -25.0996 65.9004l-18.9004 7.7002c5.10059 21.8994 5.5 22.7998 5.5 27.1992c0 18.7002 -15.3994 34 -31.8994 34.1006l-22.9004 -1.2002l-4.7998 18.9004c-3.7998 15.0996 -17.4004 25.5996 -32.9004 25.5996
c-18.8994 0 -34.2002 -15.2002 -34.2002 -34v-285.8c-2.69922 -7.5 -4.7998 -15.2002 -6.09961 -23.2002zM247.9 25.2002h-0.100586v340.7c0 18.7998 -15.2998 34 -34.2002 34c-15.5 0 -29 -10.5 -32.8994 -25.6006l-4.7998 -18.8994l-22.9004 1.19922
c-16.5996 -0.0996094 -31.9004 -15.2998 -31.9004 -34.0996c0 -4.40039 0.5 -5.2998 5.5 -27.2002l-18.8994 -7.7002c-13.7002 -5.59961 -42.7002 -30.2998 -25.1006 -66.0996l9.90039 -20.0996l-19.5 -11.2002c-35.7998 -20.5 -31.4004 -71.4004 5.5 -86.6006l18.2002 -7.5
s-4.7002 -24.5996 -4.7002 -27.3994c0 -25.2002 24.5 -44.5 48.5 -40.5l20.2998 3.39941c6.10059 -18.0996 12.7002 -47.5996 45.6006 -47.5996c22.8994 0 41.5 18.4004 41.5 41.2002z" />
    <glyph glyph-name="alarm-exclamation" unicode="&#xf843;" horiz-adv-x="512" 
d="M256 384c123.74 0 224 -100.29 224 -224c0 -0.0351562 -0.104492 -0.253906 -0.104492 -0.289062c0 -50.1582 -16.6191 -96.4648 -44.6455 -133.711l40.0996 -40.0596c2.89746 -2.89648 4.69043 -6.90137 4.69043 -11.3174s-1.79297 -8.41699 -4.69043 -11.3135
l-22.6299 -22.6191c-2.89551 -2.89453 -6.89844 -4.68555 -11.3115 -4.68555c-4.41406 0 -8.41211 1.79102 -11.3086 4.68555l-40.0996 40.0898c-37.2715 -28.0547 -83.9873 -44.6904 -134.186 -44.6904c-50.1992 0 -96.543 16.6357 -133.814 44.6904l-40.0596 -40.1201
c-2.89648 -2.89746 -6.90137 -4.69043 -11.3174 -4.69043s-8.41699 1.79297 -11.3135 4.69043l-22.6191 22.6201c-2.89746 2.89648 -4.69043 6.90137 -4.69043 11.3174s1.79297 8.41602 4.69043 11.3125l40.0996 40.0898c-28.0508 37.2559 -44.79 83.7686 -44.79 133.952
v0.0478516c0 123.71 100.3 224 224 224zM256 -16c97.1367 0 176 78.8633 176 176s-78.8633 176 -176 176s-176 -78.8633 -176 -176s78.8633 -176 176 -176zM96 448c25.1729 -0.00195312 48.1172 -9.75586 65.2002 -25.6797l-145.9 -121.58
c-9.57422 14.7402 -15.2236 32.4072 -15.2998 51.2598c0 52.9834 43.0166 96 96 96zM416 448c52.9834 0 96 -43.0166 96 -96c-0.0820312 -18.8398 -5.72559 -36.4961 -15.29 -51.2305l-145.89 121.57c17.082 15.9111 40.0186 25.6553 65.1797 25.6602zM256 96
c17.6611 0 32 -14.3389 32 -32s-14.3389 -32 -32 -32s-32 14.3389 -32 32s14.3389 32 32 32zM278.3 288c8.81738 -0.0166016 15.9814 -7.16309 15.9814 -15.9834c0 -0.545898 -0.0273438 -1.08496 -0.0810547 -1.61621l-12.7998 -128
c-0.811523 -8.06641 -7.62402 -14.3906 -15.9004 -14.4004h-19c-8.27637 0.00976562 -15.0889 6.33398 -15.9004 14.4004l-12.7998 128c-0.0488281 0.511719 -0.0722656 1.01465 -0.0722656 1.54004c0 8.83398 7.14941 16.0127 15.9727 16.0596h44.5996z" />
    <glyph glyph-name="alarm-plus" unicode="&#xf844;" horiz-adv-x="512" 
d="M256 384c123.74 0 224 -100.29 224 -224c0 -0.0351562 -0.104492 -0.253906 -0.104492 -0.289062c0 -50.1582 -16.6191 -96.4648 -44.6455 -133.711l40.0996 -40.0596c2.89746 -2.89648 4.69043 -6.90137 4.69043 -11.3174s-1.79297 -8.41699 -4.69043 -11.3135
l-22.6299 -22.6191c-2.89551 -2.89453 -6.89844 -4.68555 -11.3115 -4.68555c-4.41406 0 -8.41211 1.79102 -11.3086 4.68555l-40.0996 40.0898c-37.2715 -28.0547 -83.9873 -44.6904 -134.186 -44.6904c-50.1992 0 -96.543 16.6357 -133.814 44.6904l-40.0596 -40.1201
c-2.89648 -2.89746 -6.90137 -4.69043 -11.3174 -4.69043s-8.41699 1.79297 -11.3135 4.69043l-22.6191 22.6201c-2.89746 2.89648 -4.69043 6.90137 -4.69043 11.3174s1.79297 8.41602 4.69043 11.3125l40.0996 40.0898c-28.0508 37.2559 -44.79 83.7686 -44.79 133.952
v0.0478516c0 123.71 100.3 224 224 224zM256 -16c97.1367 0 176 78.8633 176 176s-78.8633 176 -176 176s-176 -78.8633 -176 -176s78.8633 -176 176 -176zM352 184c8.83105 0 16 -7.16895 16 -16v-16c0 -8.83105 -7.16895 -16 -16 -16h-72v-72
c0 -8.83105 -7.16895 -16 -16 -16h-16c-8.83105 0 -16 7.16895 -16 16v72h-72c-8.83105 0 -16 7.16895 -16 16v16c0 8.83105 7.16895 16 16 16h72v72c0 8.83105 7.16895 16 16 16h16c8.83105 0 16 -7.16895 16 -16v-72h72zM96 448
c25.1729 -0.00195312 48.1172 -9.75586 65.2002 -25.6797l-145.9 -121.58c-9.57422 14.7402 -15.2236 32.4072 -15.2998 51.2598c0 52.9834 43.0166 96 96 96zM416 448c52.9834 0 96 -43.0166 96 -96c-0.0820312 -18.8398 -5.72559 -36.4961 -15.29 -51.2305l-145.89 121.57
c17.082 15.9111 40.0186 25.6553 65.1797 25.6602z" />
    <glyph glyph-name="alarm-snooze" unicode="&#xf845;" horiz-adv-x="512" 
d="M256 384c123.74 0 224 -100.29 224 -224c0 -0.0351562 -0.104492 -0.253906 -0.104492 -0.289062c0 -50.1582 -16.6191 -96.4648 -44.6455 -133.711l40.0996 -40.0596c2.89746 -2.89648 4.69043 -6.90137 4.69043 -11.3174s-1.79297 -8.41699 -4.69043 -11.3135
l-22.6299 -22.6191c-2.89551 -2.89453 -6.89844 -4.68555 -11.3115 -4.68555c-4.41406 0 -8.41211 1.79102 -11.3086 4.68555l-40.0996 40.0898c-37.2715 -28.0547 -83.9873 -44.6904 -134.186 -44.6904c-50.1992 0 -96.543 16.6357 -133.814 44.6904l-40.0596 -40.1201
c-2.89648 -2.89746 -6.90137 -4.69043 -11.3174 -4.69043s-8.41699 1.79297 -11.3135 4.69043l-22.6191 22.6201c-2.89746 2.89648 -4.69043 6.90137 -4.69043 11.3174s1.79297 8.41602 4.69043 11.3125l40.0996 40.0898c-28.0508 37.2559 -44.79 83.7686 -44.79 133.952
v0.0478516c0 123.71 100.3 224 224 224zM256 -16c97.1367 0 176 78.8633 176 176s-78.8633 176 -176 176s-176 -78.8633 -176 -176s78.8633 -176 176 -176zM320 264c13.2393 -0.0078125 23.9766 -10.7764 23.9766 -24.0166c0 -5.66602 -1.96777 -10.876 -5.25684 -14.9834
l-96.7998 -121h78.0801c8.83105 0 16 -7.16895 16 -16v-16c0 -8.83105 -7.16895 -16 -16 -16h-128c-0.00878906 0 -0.0078125 0.0166016 -0.015625 0.0166016c-13.2461 0 -24 10.7539 -24 24c0 5.66602 1.9668 10.876 5.25586 14.9834l96.8301 121h-78.0703
c-8.83105 0 -16 7.16895 -16 16v16c0 8.83105 7.16895 16 16 16h128zM96 448c25.1729 -0.00195312 48.1172 -9.75586 65.2002 -25.6797l-145.9 -121.58c-9.57422 14.7402 -15.2236 32.4072 -15.2998 51.2598c0 52.9834 43.0166 96 96 96zM416 448
c52.9834 0 96 -43.0166 96 -96c-0.0820312 -18.8398 -5.72559 -36.4961 -15.29 -51.2305l-145.89 121.57c17.082 15.9111 40.0186 25.6553 65.1797 25.6602z" />
    <glyph glyph-name="align-slash" unicode="&#xf846;" horiz-adv-x="640" 
d="M634 -23c3.66992 -2.93262 6.00488 -7.45117 6.00488 -12.5098c0 -3.77832 -1.31152 -7.25195 -3.50488 -9.99023l-10 -12.5c-2.93262 -3.66992 -7.45117 -6.00488 -12.5098 -6.00488c-3.77832 0 -7.25195 1.31152 -9.99023 3.50488l-598 467.5
c-3.67285 2.93262 -6.01074 7.4541 -6.01074 12.5146c0 3.77539 1.31055 7.24805 3.50098 9.98535l10 12.5c2.93262 3.67285 7.45312 6.00977 12.5137 6.00977c3.78027 0 7.25684 -1.31348 9.99609 -3.50977zM528 152c8.83105 0 16 -7.16895 16 -16v-16
c-0.0761719 -3.44824 -1.28125 -6.64062 -3.25 -9.19043l-52.6904 41.1904h39.9404zM544 264v-16c0 -8.83105 -7.16895 -16 -16 -16h-142.27l-61.3906 48h203.66c8.83105 0 16 -7.16895 16 -16zM528 360h-306l-61.3896 48h367.39c8.83105 0 16 -7.16895 16 -16v-16
c0 -8.83105 -7.16895 -16 -16 -16zM112 24h306l61.3701 -48h-367.37c-8.83105 0 -16 7.16895 -16 16v16c0 8.83105 7.16895 16 16 16zM112 104c-8.83105 0 -16 7.16895 -16 16v16c0 8.83105 7.16895 16 16 16h142.26l61.3906 -48h-203.65z" />
    <glyph glyph-name="bags-shopping" unicode="&#xf847;" horiz-adv-x="576" 
d="M272 208v32h-96v-32c0 -8.83105 -7.16895 -16 -16 -16h-16c-8.83105 0 -16 7.16895 -16 16v32h-80v-224h112v-48h-128c-17.6611 0 -32 14.3389 -32 32v256c0 17.6611 14.3389 32 32 32h96v64c0 52.9834 43.0166 96 96 96s96 -43.0166 96 -96v-64h96
c17.6611 0 32 -14.3389 32 -32v-64h-48v48h-80v-32c0 -8.83105 -7.16895 -16 -16 -16h-16c-8.83105 0 -16 7.16895 -16 16zM176 288h96v64c0 26.4922 -21.5078 48 -48 48s-48 -21.5078 -48 -48v-64zM544 160c17.6611 0 32 -14.3389 32 -32v-160
c0 -17.6611 -14.3389 -32 -32 -32h-320c-17.6611 0 -32 14.3389 -32 32v160c0 17.6611 14.3389 32 32 32h320zM432 112h-96c0 -26.4922 21.5078 -48 48 -48s48 21.5078 48 48zM528 -16v128h-48c-0.0615234 -52.9971 -43.0088 -96.0107 -96.0205 -96.0107
c-4.27441 0 -8.48242 0.279297 -12.6094 0.820312c-47.2705 6.07031 -81.5 47.79 -83.0703 95.1904h-48.2998v-128h288z" />
    <glyph glyph-name="bell-exclamation" unicode="&#xf848;" 
d="M236.46 157.49c7.66309 -3.2334 13.7666 -9.33789 17 -17c1.61035 -3.81445 2.53809 -8.04199 2.53809 -12.4395c0 -17.6279 -14.3125 -31.9395 -31.9404 -31.9395s-31.9395 14.3115 -31.9395 31.9395s14.3115 31.9404 31.9395 31.9404
c4.39746 0 8.58887 -0.890625 12.4023 -2.50098zM246.29 320c8.82129 -0.0107422 15.9805 -7.16016 15.9805 -15.9834c0 -0.545898 -0.0273438 -1.08496 -0.0800781 -1.61621l-12.8008 -96c-0.810547 -8.06641 -7.62402 -14.3906 -15.8994 -14.4004h-19
c-8.27637 0.00976562 -15.0898 6.33398 -15.9004 14.4004l-12.7998 96c-0.0498047 0.511719 -0.0722656 1.01465 -0.0722656 1.54004c0 8.83398 7.14844 16.0127 15.9727 16.0596h44.5996zM224 -64c-35.3223 0 -64 28.6777 -64 64h128c0 -35.3223 -28.6777 -64 -64 -64z
M439.37 85.7002c5.3457 -5.59668 8.62988 -13.1836 8.62988 -21.5273v-0.172852c-0.0898438 -16.4102 -12.9697 -32 -32.0898 -32h-383.82c-19.0898 0 -31.96 15.5898 -32.0898 32c0 0.0576172 -0.000976562 0.120117 -0.000976562 0.177734
c0 8.34375 3.28516 15.9258 8.63086 21.5225c19.3105 20.7695 55.46 52 55.46 154.3c0 77.7002 54.4697 139.91 127.91 155.16v20.8398c-0.00976562 0.331055 -0.0146484 0.663086 -0.0146484 0.996094c0 17.6611 14.3389 32 32 32s32 -14.3389 32 -32
c0 -0.333008 -0.00488281 -0.665039 -0.015625 -0.996094v-20.8398c73.4707 -15.25 127.94 -77.46 127.94 -155.16c0 -102.3 36.1494 -133.53 55.46 -154.3zM67.5303 80h312.939c-21.2197 27.9502 -44.4102 74.3096 -44.5293 159.42
c0 0.200195 0.0595703 0.379883 0.0595703 0.580078c0 61.8145 -50.1855 112 -112 112s-112 -50.1855 -112 -112c0 -0.200195 0.0595703 -0.379883 0.0595703 -0.580078c-0.119141 -85.0898 -23.3096 -131.42 -44.5293 -159.42z" />
    <glyph glyph-name="bell-plus" unicode="&#xf849;" 
d="M224 -64c-35.3223 0 -64 28.6777 -64 64h128c0 -35.3223 -28.6777 -64 -64 -64zM439.37 85.7002c5.3457 -5.59668 8.62988 -13.1836 8.62988 -21.5273v-0.172852c-0.0898438 -16.4102 -12.9697 -32 -32.0898 -32h-383.82c-19.0898 0 -31.96 15.5898 -32.0898 32
c0 0.0576172 -0.000976562 0.120117 -0.000976562 0.177734c0 8.34375 3.28516 15.9258 8.63086 21.5225c19.3105 20.7695 55.46 52 55.46 154.3c0 77.7002 54.4697 139.91 127.91 155.16v20.8398c-0.00976562 0.331055 -0.0146484 0.663086 -0.0146484 0.996094
c0 17.6611 14.3389 32 32 32s32 -14.3389 32 -32c0 -0.333008 -0.00488281 -0.665039 -0.015625 -0.996094v-20.8398c73.4707 -15.25 127.94 -77.46 127.94 -155.16c0 -102.3 36.1494 -133.53 55.46 -154.3zM67.5303 80h312.939
c-21.2197 27.9502 -44.4102 74.3096 -44.5293 159.42c0 0.200195 0.0595703 0.379883 0.0595703 0.580078c0 61.8145 -50.1855 112 -112 112s-112 -50.1855 -112 -112c0 -0.200195 0.0595703 -0.379883 0.0595703 -0.580078
c-0.119141 -85.0898 -23.3096 -131.42 -44.5293 -159.42zM288 232c8.83105 0 16 -7.16895 16 -16v-16c0 -8.83105 -7.16895 -16 -16 -16h-40v-40c0 -8.83105 -7.16895 -16 -16 -16h-16c-8.83105 0 -16 7.16895 -16 16v40h-40c-8.83105 0 -16 7.16895 -16 16v16
c0 8.83105 7.16895 16 16 16h40v40c0 8.83105 7.16895 16 16 16h16c8.83105 0 16 -7.16895 16 -16v-40h40z" />
    <glyph glyph-name="biking" unicode="&#xf84a;" horiz-adv-x="640" 
d="M400 352c-26.4922 0 -48 21.5078 -48 48s21.5078 48 48 48s48 -21.5078 48 -48s-21.5078 -48 -48 -48zM128 192c70.6455 0 128 -57.3545 128 -128s-57.3545 -128 -128 -128s-128 57.3545 -128 128s57.3545 128 128 128zM128 -16c44.1299 0.0498047 79.9502 35.8701 80 80
c0 44.1533 -35.8467 80 -80 80s-80 -35.8467 -80 -80s35.8467 -80 80 -80zM512 192c70.6455 0 128 -57.3545 128 -128s-57.3545 -128 -128 -128s-128 57.3545 -128 128s57.3545 128 128 128zM512 -16c44.1299 0.0498047 79.9502 35.8701 80 80c0 44.1533 -35.8467 80 -80 80
s-80 -35.8467 -80 -80s35.8467 -80 80 -80zM401 237.27l-46.54 37.2305l-71.29 -61.0996l50.1104 -33.4004c6.45703 -4.30371 10.6895 -11.6357 10.6895 -19.9707v-0.0292969v-128c0 -13.2461 -10.7539 -24 -24 -24s-24 10.7539 -24 24v115.17l-76.5293 51
c-8.60938 5.7373 -14.2715 15.5078 -14.2715 26.6201c0 9.72852 4.35059 18.4492 11.2109 24.3203l104 89.1094c4.19727 3.59766 9.67871 5.76855 15.6348 5.76855c5.66699 0 10.8779 -1.96875 14.9854 -5.25781l73.4102 -58.7305h55.5898c13.2461 0 24 -10.7539 24 -24
s-10.7539 -24 -24 -24h-64c-5.66602 0.00195312 -10.8936 1.97949 -15 5.26953z" />
    <glyph glyph-name="biking-mountain" unicode="&#xf84b;" horiz-adv-x="640" 
d="M400 352c-26.4922 0 -48 21.5078 -48 48s21.5078 48 48 48s48 -21.5078 48 -48s-21.5078 -48 -48 -48zM624 96c8.83105 0 16 -7.16895 16 -16v-32c0 -8.83105 -7.16895 -16 -16 -16h-5.2002c-2.16699 -7.2627 -5.11133 -14.3369 -8.64941 -20.8896l3.66992 -3.66992
c2.89648 -2.89648 4.68945 -6.90137 4.68945 -11.3174s-1.79297 -8.41699 -4.68945 -11.3135l-22.6299 -22.6299c-2.89648 -2.89355 -6.89941 -4.68457 -11.3125 -4.68457c-4.41406 0 -8.41211 1.79102 -11.3076 4.68457l-3.66992 3.66992
c-6.55664 -3.53809 -13.6348 -6.48145 -20.9004 -8.64941v-5.2002c0 -8.83105 -7.16895 -16 -16 -16h-32c-8.83105 0 -16 7.16895 -16 16v5.2002c-7.26465 2.16992 -14.3428 5.11426 -20.9004 8.64941l-3.66992 -3.66992
c-2.89551 -2.89648 -6.90137 -4.68945 -11.3174 -4.68945c-4.41504 0 -8.41602 1.79297 -11.3125 4.68945l-22.6201 22.6299c-2.89648 2.89648 -4.68945 6.90137 -4.68945 11.3174s1.79297 8.41699 4.68945 11.3135l3.66992 3.66992
c-3.53906 6.55176 -6.4834 13.626 -8.64941 20.8896h-5.2002c-8.83105 0 -16 7.16895 -16 16v32c0 8.83105 7.16895 16 16 16h5.2002c2.1709 7.2627 5.11816 14.3379 8.66016 20.8896l-3.66992 3.66992c-2.89746 2.89648 -4.69043 6.90137 -4.69043 11.3174
s1.79297 8.41699 4.69043 11.3135l22.6191 22.6299c2.89648 2.89648 6.90137 4.68945 11.3174 4.68945s8.41699 -1.79297 11.3135 -4.68945l3.66992 -3.66992c6.55176 3.53906 13.626 6.4834 20.8896 8.64941v5.2002c0 8.83105 7.16895 16 16 16h32
c8.83105 0 16 -7.16895 16 -16v-5.2002c7.26562 -2.16895 14.3438 -5.1123 20.9004 -8.64941l3.65918 3.66992c2.89648 2.89648 6.90137 4.68945 11.3174 4.68945s8.41699 -1.79297 11.3135 -4.68945l22.6299 -22.6299c2.89648 -2.89648 4.68945 -6.90137 4.68945 -11.3174
s-1.79297 -8.41699 -4.68945 -11.3135l-3.66992 -3.66992c3.53906 -6.55176 6.4834 -13.626 8.64941 -20.8896h5.2002zM512 0c35.3223 0 64 28.6777 64 64s-28.6777 64 -64 64s-64 -28.6777 -64 -64s28.6777 -64 64 -64zM240 96c8.83105 0 16 -7.16895 16 -16v-32
c0 -8.83105 -7.16895 -16 -16 -16h-5.2002c-2.16699 -7.2627 -5.11133 -14.3369 -8.64941 -20.8896l3.66992 -3.66992c2.89648 -2.89648 4.68945 -6.90137 4.68945 -11.3174s-1.79297 -8.41699 -4.68945 -11.3135l-22.6299 -22.6299
c-2.89648 -2.89355 -6.89941 -4.68457 -11.3125 -4.68457c-4.41406 0 -8.41211 1.79102 -11.3076 4.68457l-3.66992 3.66992c-6.55664 -3.53809 -13.6348 -6.48145 -20.9004 -8.64941v-5.2002c0 -8.83105 -7.16895 -16 -16 -16h-32c-8.83105 0 -16 7.16895 -16 16v5.2002
c-7.26465 2.16992 -14.3428 5.11426 -20.9004 8.64941l-3.66992 -3.66992c-2.89551 -2.89648 -6.90137 -4.68945 -11.3174 -4.68945c-4.41504 0 -8.41602 1.79297 -11.3125 4.68945l-22.6201 22.6299c-2.89648 2.89648 -4.68945 6.90137 -4.68945 11.3174
s1.79297 8.41699 4.68945 11.3135l3.66992 3.66992c-3.53906 6.55176 -6.4834 13.626 -8.64941 20.8896h-5.2002c-8.83105 0 -16 7.16895 -16 16v32c0 8.83105 7.16895 16 16 16h5.2002c2.16699 7.2627 5.11133 14.3369 8.64941 20.8896l-3.66992 3.66992
c-2.89648 2.89648 -4.68945 6.90137 -4.68945 11.3174s1.79297 8.41699 4.68945 11.3135l22.6299 22.6299c2.89648 2.89648 6.90137 4.68945 11.3174 4.68945s8.41699 -1.79297 11.3135 -4.68945l3.66992 -3.66992c6.55176 3.53906 13.626 6.4834 20.8896 8.64941v5.2002
c0 8.83105 7.16895 16 16 16h32c8.83105 0 16 -7.16895 16 -16v-5.2002c7.26562 -2.16895 14.3438 -5.1123 20.9004 -8.64941l3.65918 3.66992c2.89648 2.89648 6.90137 4.68945 11.3174 4.68945s8.41699 -1.79297 11.3135 -4.68945l22.6299 -22.6299
c2.89648 -2.89648 4.68945 -6.90137 4.68945 -11.3174s-1.79297 -8.41699 -4.68945 -11.3135l-3.66992 -3.66992c3.53906 -6.55176 6.4834 -13.626 8.64941 -20.8896h5.2002zM128 0c35.3223 0 64 28.6777 64 64s-28.6777 64 -64 64s-64 -28.6777 -64 -64s28.6777 -64 64 -64
zM401 237.27l-40.1904 32.1807l-70.7295 -60.6299l43.2295 -28.8203c6.45703 -4.30371 10.6904 -11.6357 10.6904 -19.9707v-0.0292969v-128c0 -13.2461 -10.7539 -24 -24 -24s-24 10.7539 -24 24v115.16l-85.3096 56.8398
c-6.46777 4.30176 -10.7217 11.6348 -10.7217 19.9775c0 7.29785 3.26465 13.8389 8.41113 18.2422l112 96c4.19727 3.59766 9.67871 5.76855 15.6348 5.76855c5.66699 0 10.8779 -1.96875 14.9854 -5.25781l73.4102 -58.7305h55.5898c13.2461 0 24 -10.7539 24 -24
s-10.7539 -24 -24 -24h-64c-5.66602 0.00195312 -10.8936 1.97949 -15 5.26953zM159.19 276l-30.25 34.2402c-5.55957 6.18262 -8.96777 14.3652 -8.96777 23.3262c0 10.6094 4.74512 20.1201 12.2275 26.5234l53.7295 45.9102
c33.0703 28.1201 84.0703 23.5498 113.28 -9.48047c11.29 -12.8398 13.5498 -35.5996 -3.26953 -49.8398l-87.3008 -74.4492c-6.16699 -5.15723 -14.123 -8.29004 -22.7842 -8.29004c-10.6172 0 -20.1523 4.66699 -26.665 12.0596zM217.07 369.5l-43.5303 -37.2598
l13.54 -15.3105l65.6396 56c-11.6494 5.91992 -25.7295 4.99023 -35.6494 -3.42969z" />
    <glyph glyph-name="border-all" unicode="&#xf84c;" 
d="M416 416c17.6611 0 32 -14.3389 32 -32v-384c0 -17.6611 -14.3389 -32 -32 -32h-384c-17.6611 0 -32 14.3389 -32 32v384c0 17.6611 14.3389 32 32 32h384zM400 368h-152v-152h152v152zM200 368h-152v-152h152v152zM48 16h152v152h-152v-152zM248 16h152v152h-152v-152z
" />
    <glyph glyph-name="border-bottom" unicode="&#xf84d;" 
d="M432 16c8.83105 0 16 -7.16895 16 -16v-16c0 -8.83105 -7.16895 -16 -16 -16h-416c-8.83105 0 -16 7.16895 -16 16v16c0 8.83105 7.16895 16 16 16h416zM112 360c-8.83105 0 -16 7.16895 -16 16v24c0 8.83105 7.16895 16 16 16h24c8.83105 0 16 -7.16895 16 -16v-24
c0 -8.83105 -7.16895 -16 -16 -16h-24zM112 164c-8.83105 0 -16 7.16895 -16 16v24c0 8.83105 7.16895 16 16 16h24c8.83105 0 16 -7.16895 16 -16v-24c0 -8.83105 -7.16895 -16 -16 -16h-24zM212 164c-8.83105 0 -16 7.16895 -16 16v24c0 8.83105 7.16895 16 16 16h24
c8.83105 0 16 -7.16895 16 -16v-24c0 -8.83105 -7.16895 -16 -16 -16h-24zM312 164c-8.83105 0 -16 7.16895 -16 16v24c0 8.83105 7.16895 16 16 16h24c8.83105 0 16 -7.16895 16 -16v-24c0 -8.83105 -7.16895 -16 -16 -16h-24zM212 264c-8.83105 0 -16 7.16895 -16 16v24
c0 8.83105 7.16895 16 16 16h24c8.83105 0 16 -7.16895 16 -16v-24c0 -8.83105 -7.16895 -16 -16 -16h-24zM312 360c-8.83105 0 -16 7.16895 -16 16v24c0 8.83105 7.16895 16 16 16h24c8.83105 0 16 -7.16895 16 -16v-24c0 -8.83105 -7.16895 -16 -16 -16h-24zM212 360
c-8.83105 0 -16 7.16895 -16 16v24c0 8.83105 7.16895 16 16 16h24c8.83105 0 16 -7.16895 16 -16v-24c0 -8.83105 -7.16895 -16 -16 -16h-24zM212 64c-8.83105 0 -16 7.16895 -16 16v24c0 8.83105 7.16895 16 16 16h24c8.83105 0 16 -7.16895 16 -16v-24
c0 -8.83105 -7.16895 -16 -16 -16h-24zM432 220c8.83105 0 16 -7.16895 16 -16v-24c0 -8.83105 -7.16895 -16 -16 -16h-24c-8.83105 0 -16 7.16895 -16 16v24c0 8.83105 7.16895 16 16 16h24zM432 120c8.83105 0 16 -7.16895 16 -16v-24c0 -8.83105 -7.16895 -16 -16 -16
h-24c-8.83105 0 -16 7.16895 -16 16v24c0 8.83105 7.16895 16 16 16h24zM432 320c8.83105 0 16 -7.16895 16 -16v-24c0 -8.83105 -7.16895 -16 -16 -16h-24c-8.83105 0 -16 7.16895 -16 16v24c0 8.83105 7.16895 16 16 16h24zM432 416c8.83105 0 16 -7.16895 16 -16v-24
c0 -8.83105 -7.16895 -16 -16 -16h-24c-8.83105 0 -16 7.16895 -16 16v24c0 8.83105 7.16895 16 16 16h24zM16 64c-8.83105 0 -16 7.16895 -16 16v24c0 8.83105 7.16895 16 16 16h24c8.83105 0 16 -7.16895 16 -16v-24c0 -8.83105 -7.16895 -16 -16 -16h-24zM16 264
c-8.83105 0 -16 7.16895 -16 16v24c0 8.83105 7.16895 16 16 16h24c8.83105 0 16 -7.16895 16 -16v-24c0 -8.83105 -7.16895 -16 -16 -16h-24zM16 360c-8.83105 0 -16 7.16895 -16 16v24c0 8.83105 7.16895 16 16 16h24c8.83105 0 16 -7.16895 16 -16v-24
c0 -8.83105 -7.16895 -16 -16 -16h-24zM16 164c-8.83105 0 -16 7.16895 -16 16v24c0 8.83105 7.16895 16 16 16h24c8.83105 0 16 -7.16895 16 -16v-24c0 -8.83105 -7.16895 -16 -16 -16h-24z" />
    <glyph glyph-name="border-inner" unicode="&#xf84e;" 
d="M432 216c8.83105 0 16 -7.16895 16 -16v-16c0 -8.83105 -7.16895 -16 -16 -16h-184v-184c0 -8.83105 -7.16895 -16 -16 -16h-16c-8.83105 0 -16 7.16895 -16 16v184h-184c-8.83105 0 -16 7.16895 -16 16v16c0 8.83105 7.16895 16 16 16h184v184
c0 8.83105 7.16895 16 16 16h16c8.83105 0 16 -7.16895 16 -16v-184h184zM40 24c8.83105 0 16 -7.16895 16 -16v-24c0 -8.83105 -7.16895 -16 -16 -16h-24c-8.83105 0 -16 7.16895 -16 16v24c0 8.83105 7.16895 16 16 16h24zM16 264c-8.83105 0 -16 7.16895 -16 16v24
c0 8.83105 7.16895 16 16 16h24c8.83105 0 16 -7.16895 16 -16v-24c0 -8.83105 -7.16895 -16 -16 -16h-24zM40 120c8.83105 0 16 -7.16895 16 -16v-24c0 -8.83105 -7.16895 -16 -16 -16h-24c-8.83105 0 -16 7.16895 -16 16v24c0 8.83105 7.16895 16 16 16h24zM112 360
c-8.83105 0 -16 7.16895 -16 16v24c0 8.83105 7.16895 16 16 16h24c8.83105 0 16 -7.16895 16 -16v-24c0 -8.83105 -7.16895 -16 -16 -16h-24zM16 360c-8.83105 0 -16 7.16895 -16 16v24c0 8.83105 7.16895 16 16 16h24c8.83105 0 16 -7.16895 16 -16v-24
c0 -8.83105 -7.16895 -16 -16 -16h-24zM312 360c-8.83105 0 -16 7.16895 -16 16v24c0 8.83105 7.16895 16 16 16h24c8.83105 0 16 -7.16895 16 -16v-24c0 -8.83105 -7.16895 -16 -16 -16h-24zM432 120c8.83105 0 16 -7.16895 16 -16v-24c0 -8.83105 -7.16895 -16 -16 -16
h-24c-8.83105 0 -16 7.16895 -16 16v24c0 8.83105 7.16895 16 16 16h24zM136 24c8.83105 0 16 -7.16895 16 -16v-24c0 -8.83105 -7.16895 -16 -16 -16h-24c-8.83105 0 -16 7.16895 -16 16v24c0 8.83105 7.16895 16 16 16h24zM432 416c8.83105 0 16 -7.16895 16 -16v-24
c0 -8.83105 -7.16895 -16 -16 -16h-24c-8.83105 0 -16 7.16895 -16 16v24c0 8.83105 7.16895 16 16 16h24zM432 320c8.83105 0 16 -7.16895 16 -16v-24c0 -8.83105 -7.16895 -16 -16 -16h-24c-8.83105 0 -16 7.16895 -16 16v24c0 8.83105 7.16895 16 16 16h24zM336 24
c8.83105 0 16 -7.16895 16 -16v-24c0 -8.83105 -7.16895 -16 -16 -16h-24c-8.83105 0 -16 7.16895 -16 16v24c0 8.83105 7.16895 16 16 16h24zM432 24c8.83105 0 16 -7.16895 16 -16v-24c0 -8.83105 -7.16895 -16 -16 -16h-24c-8.83105 0 -16 7.16895 -16 16v24
c0 8.83105 7.16895 16 16 16h24z" />
    <glyph glyph-name="border-left" unicode="&#xf84f;" 
d="M32 416c8.83105 0 16 -7.16895 16 -16v-416c0 -8.83105 -7.16895 -16 -16 -16h-16c-8.83105 0 -16 7.16895 -16 16v416c0 8.83105 7.16895 16 16 16h16zM236 24c8.83105 0 16 -7.16895 16 -16v-24c0 -8.83105 -7.16895 -16 -16 -16h-24c-8.83105 0 -16 7.16895 -16 16v24
c0 8.83105 7.16895 16 16 16h24zM236 120c8.83105 0 16 -7.16895 16 -16v-24c0 -8.83105 -7.16895 -16 -16 -16h-24c-8.83105 0 -16 7.16895 -16 16v24c0 8.83105 7.16895 16 16 16h24zM236 320c8.83105 0 16 -7.16895 16 -16v-24c0 -8.83105 -7.16895 -16 -16 -16h-24
c-8.83105 0 -16 7.16895 -16 16v24c0 8.83105 7.16895 16 16 16h24zM136 416c8.83105 0 16 -7.16895 16 -16v-24c0 -8.83105 -7.16895 -16 -16 -16h-24c-8.83105 0 -16 7.16895 -16 16v24c0 8.83105 7.16895 16 16 16h24zM236 416c8.83105 0 16 -7.16895 16 -16v-24
c0 -8.83105 -7.16895 -16 -16 -16h-24c-8.83105 0 -16 7.16895 -16 16v24c0 8.83105 7.16895 16 16 16h24zM136 24c8.83105 0 16 -7.16895 16 -16v-24c0 -8.83105 -7.16895 -16 -16 -16h-24c-8.83105 0 -16 7.16895 -16 16v24c0 8.83105 7.16895 16 16 16h24zM136 220
c8.83105 0 16 -7.16895 16 -16v-24c0 -8.83105 -7.16895 -16 -16 -16h-24c-8.83105 0 -16 7.16895 -16 16v24c0 8.83105 7.16895 16 16 16h24zM236 220c8.83105 0 16 -7.16895 16 -16v-24c0 -8.83105 -7.16895 -16 -16 -16h-24c-8.83105 0 -16 7.16895 -16 16v24
c0 8.83105 7.16895 16 16 16h24zM432 320c8.83105 0 16 -7.16895 16 -16v-24c0 -8.83105 -7.16895 -16 -16 -16h-24c-8.83105 0 -16 7.16895 -16 16v24c0 8.83105 7.16895 16 16 16h24zM432 220c8.83105 0 16 -7.16895 16 -16v-24c0 -8.83105 -7.16895 -16 -16 -16h-24
c-8.83105 0 -16 7.16895 -16 16v24c0 8.83105 7.16895 16 16 16h24zM432 416c8.83105 0 16 -7.16895 16 -16v-24c0 -8.83105 -7.16895 -16 -16 -16h-24c-8.83105 0 -16 7.16895 -16 16v24c0 8.83105 7.16895 16 16 16h24zM336 24c8.83105 0 16 -7.16895 16 -16v-24
c0 -8.83105 -7.16895 -16 -16 -16h-24c-8.83105 0 -16 7.16895 -16 16v24c0 8.83105 7.16895 16 16 16h24zM432 120c8.83105 0 16 -7.16895 16 -16v-24c0 -8.83105 -7.16895 -16 -16 -16h-24c-8.83105 0 -16 7.16895 -16 16v24c0 8.83105 7.16895 16 16 16h24zM336 220
c8.83105 0 16 -7.16895 16 -16v-24c0 -8.83105 -7.16895 -16 -16 -16h-24c-8.83105 0 -16 7.16895 -16 16v24c0 8.83105 7.16895 16 16 16h24zM432 24c8.83105 0 16 -7.16895 16 -16v-24c0 -8.83105 -7.16895 -16 -16 -16h-24c-8.83105 0 -16 7.16895 -16 16v24
c0 8.83105 7.16895 16 16 16h24zM336 416c8.83105 0 16 -7.16895 16 -16v-24c0 -8.83105 -7.16895 -16 -16 -16h-24c-8.83105 0 -16 7.16895 -16 16v24c0 8.83105 7.16895 16 16 16h24z" />
    <glyph glyph-name="border-none" unicode="&#xf850;" 
d="M336 220c8.83105 0 16 -7.16895 16 -16v-24c0 -8.83105 -7.16895 -16 -16 -16h-24c-8.83105 0 -16 7.16895 -16 16v24c0 8.83105 7.16895 16 16 16h24zM432 220c8.83105 0 16 -7.16895 16 -16v-24c0 -8.83105 -7.16895 -16 -16 -16h-24c-8.83105 0 -16 7.16895 -16 16v24
c0 8.83105 7.16895 16 16 16h24zM136 220c8.83105 0 16 -7.16895 16 -16v-24c0 -8.83105 -7.16895 -16 -16 -16h-24c-8.83105 0 -16 7.16895 -16 16v24c0 8.83105 7.16895 16 16 16h24zM336 24c8.83105 0 16 -7.16895 16 -16v-24c0 -8.83105 -7.16895 -16 -16 -16h-24
c-8.83105 0 -16 7.16895 -16 16v24c0 8.83105 7.16895 16 16 16h24zM432 24c8.83105 0 16 -7.16895 16 -16v-24c0 -8.83105 -7.16895 -16 -16 -16h-24c-8.83105 0 -16 7.16895 -16 16v24c0 8.83105 7.16895 16 16 16h24zM432 120c8.83105 0 16 -7.16895 16 -16v-24
c0 -8.83105 -7.16895 -16 -16 -16h-24c-8.83105 0 -16 7.16895 -16 16v24c0 8.83105 7.16895 16 16 16h24zM432 320c8.83105 0 16 -7.16895 16 -16v-24c0 -8.83105 -7.16895 -16 -16 -16h-24c-8.83105 0 -16 7.16895 -16 16v24c0 8.83105 7.16895 16 16 16h24zM136 24
c8.83105 0 16 -7.16895 16 -16v-24c0 -8.83105 -7.16895 -16 -16 -16h-24c-8.83105 0 -16 7.16895 -16 16v24c0 8.83105 7.16895 16 16 16h24zM236 220c8.83105 0 16 -7.16895 16 -16v-24c0 -8.83105 -7.16895 -16 -16 -16h-24c-8.83105 0 -16 7.16895 -16 16v24
c0 8.83105 7.16895 16 16 16h24zM236 24c8.83105 0 16 -7.16895 16 -16v-24c0 -8.83105 -7.16895 -16 -16 -16h-24c-8.83105 0 -16 7.16895 -16 16v24c0 8.83105 7.16895 16 16 16h24zM236 120c8.83105 0 16 -7.16895 16 -16v-24c0 -8.83105 -7.16895 -16 -16 -16h-24
c-8.83105 0 -16 7.16895 -16 16v24c0 8.83105 7.16895 16 16 16h24zM236 320c8.83105 0 16 -7.16895 16 -16v-24c0 -8.83105 -7.16895 -16 -16 -16h-24c-8.83105 0 -16 7.16895 -16 16v24c0 8.83105 7.16895 16 16 16h24zM236 416c8.83105 0 16 -7.16895 16 -16v-24
c0 -8.83105 -7.16895 -16 -16 -16h-24c-8.83105 0 -16 7.16895 -16 16v24c0 8.83105 7.16895 16 16 16h24zM336 416c8.83105 0 16 -7.16895 16 -16v-24c0 -8.83105 -7.16895 -16 -16 -16h-24c-8.83105 0 -16 7.16895 -16 16v24c0 8.83105 7.16895 16 16 16h24zM432 416
c8.83105 0 16 -7.16895 16 -16v-24c0 -8.83105 -7.16895 -16 -16 -16h-24c-8.83105 0 -16 7.16895 -16 16v24c0 8.83105 7.16895 16 16 16h24zM40 220c8.83105 0 16 -7.16895 16 -16v-24c0 -8.83105 -7.16895 -16 -16 -16h-24c-8.83105 0 -16 7.16895 -16 16v24
c0 8.83105 7.16895 16 16 16h24zM40 24c8.83105 0 16 -7.16895 16 -16v-24c0 -8.83105 -7.16895 -16 -16 -16h-24c-8.83105 0 -16 7.16895 -16 16v24c0 8.83105 7.16895 16 16 16h24zM40 120c8.83105 0 16 -7.16895 16 -16v-24c0 -8.83105 -7.16895 -16 -16 -16h-24
c-8.83105 0 -16 7.16895 -16 16v24c0 8.83105 7.16895 16 16 16h24zM40 320c8.83105 0 16 -7.16895 16 -16v-24c0 -8.83105 -7.16895 -16 -16 -16h-24c-8.83105 0 -16 7.16895 -16 16v24c0 8.83105 7.16895 16 16 16h24zM40 416c8.83105 0 16 -7.16895 16 -16v-24
c0 -8.83105 -7.16895 -16 -16 -16h-24c-8.83105 0 -16 7.16895 -16 16v24c0 8.83105 7.16895 16 16 16h24zM136 416c8.83105 0 16 -7.16895 16 -16v-24c0 -8.83105 -7.16895 -16 -16 -16h-24c-8.83105 0 -16 7.16895 -16 16v24c0 8.83105 7.16895 16 16 16h24z" />
    <glyph glyph-name="border-outer" unicode="&#xf851;" 
d="M416 416c17.6611 0 32 -14.3389 32 -32v-384c0 -17.6611 -14.3389 -32 -32 -32h-384c-17.6611 0 -32 14.3389 -32 32v384c0 17.6611 14.3389 32 32 32h384zM400 16v352h-352v-352h352zM212 264c-8.83105 0 -16 7.16895 -16 16v24c0 8.83105 7.16895 16 16 16h24
c8.83105 0 16 -7.16895 16 -16v-24c0 -8.83105 -7.16895 -16 -16 -16h-24zM312 164c-8.83105 0 -16 7.16895 -16 16v24c0 8.83105 7.16895 16 16 16h24c8.83105 0 16 -7.16895 16 -16v-24c0 -8.83105 -7.16895 -16 -16 -16h-24zM112 164c-8.83105 0 -16 7.16895 -16 16v24
c0 8.83105 7.16895 16 16 16h24c8.83105 0 16 -7.16895 16 -16v-24c0 -8.83105 -7.16895 -16 -16 -16h-24zM212 164c-8.83105 0 -16 7.16895 -16 16v24c0 8.83105 7.16895 16 16 16h24c8.83105 0 16 -7.16895 16 -16v-24c0 -8.83105 -7.16895 -16 -16 -16h-24zM212 64
c-8.83105 0 -16 7.16895 -16 16v24c0 8.83105 7.16895 16 16 16h24c8.83105 0 16 -7.16895 16 -16v-24c0 -8.83105 -7.16895 -16 -16 -16h-24z" />
    <glyph glyph-name="border-right" unicode="&#xf852;" 
d="M432 416c8.83105 0 16 -7.16895 16 -16v-416c0 -8.83105 -7.16895 -16 -16 -16h-16c-8.83105 0 -16 7.16895 -16 16v416c0 8.83105 7.16895 16 16 16h16zM40 416c8.83105 0 16 -7.16895 16 -16v-24c0 -8.83105 -7.16895 -16 -16 -16h-24c-8.83105 0 -16 7.16895 -16 16
v24c0 8.83105 7.16895 16 16 16h24zM136 416c8.83105 0 16 -7.16895 16 -16v-24c0 -8.83105 -7.16895 -16 -16 -16h-24c-8.83105 0 -16 7.16895 -16 16v24c0 8.83105 7.16895 16 16 16h24zM136 24c8.83105 0 16 -7.16895 16 -16v-24c0 -8.83105 -7.16895 -16 -16 -16h-24
c-8.83105 0 -16 7.16895 -16 16v24c0 8.83105 7.16895 16 16 16h24zM136 220c8.83105 0 16 -7.16895 16 -16v-24c0 -8.83105 -7.16895 -16 -16 -16h-24c-8.83105 0 -16 7.16895 -16 16v24c0 8.83105 7.16895 16 16 16h24zM40 320c8.83105 0 16 -7.16895 16 -16v-24
c0 -8.83105 -7.16895 -16 -16 -16h-24c-8.83105 0 -16 7.16895 -16 16v24c0 8.83105 7.16895 16 16 16h24zM40 24c8.83105 0 16 -7.16895 16 -16v-24c0 -8.83105 -7.16895 -16 -16 -16h-24c-8.83105 0 -16 7.16895 -16 16v24c0 8.83105 7.16895 16 16 16h24zM40 220
c8.83105 0 16 -7.16895 16 -16v-24c0 -8.83105 -7.16895 -16 -16 -16h-24c-8.83105 0 -16 7.16895 -16 16v24c0 8.83105 7.16895 16 16 16h24zM40 120c8.83105 0 16 -7.16895 16 -16v-24c0 -8.83105 -7.16895 -16 -16 -16h-24c-8.83105 0 -16 7.16895 -16 16v24
c0 8.83105 7.16895 16 16 16h24zM336 24c8.83105 0 16 -7.16895 16 -16v-24c0 -8.83105 -7.16895 -16 -16 -16h-24c-8.83105 0 -16 7.16895 -16 16v24c0 8.83105 7.16895 16 16 16h24zM236 24c8.83105 0 16 -7.16895 16 -16v-24c0 -8.83105 -7.16895 -16 -16 -16h-24
c-8.83105 0 -16 7.16895 -16 16v24c0 8.83105 7.16895 16 16 16h24zM336 220c8.83105 0 16 -7.16895 16 -16v-24c0 -8.83105 -7.16895 -16 -16 -16h-24c-8.83105 0 -16 7.16895 -16 16v24c0 8.83105 7.16895 16 16 16h24zM336 416c8.83105 0 16 -7.16895 16 -16v-24
c0 -8.83105 -7.16895 -16 -16 -16h-24c-8.83105 0 -16 7.16895 -16 16v24c0 8.83105 7.16895 16 16 16h24zM236 416c8.83105 0 16 -7.16895 16 -16v-24c0 -8.83105 -7.16895 -16 -16 -16h-24c-8.83105 0 -16 7.16895 -16 16v24c0 8.83105 7.16895 16 16 16h24zM236 320
c8.83105 0 16 -7.16895 16 -16v-24c0 -8.83105 -7.16895 -16 -16 -16h-24c-8.83105 0 -16 7.16895 -16 16v24c0 8.83105 7.16895 16 16 16h24zM236 120c8.83105 0 16 -7.16895 16 -16v-24c0 -8.83105 -7.16895 -16 -16 -16h-24c-8.83105 0 -16 7.16895 -16 16v24
c0 8.83105 7.16895 16 16 16h24zM236 220c8.83105 0 16 -7.16895 16 -16v-24c0 -8.83105 -7.16895 -16 -16 -16h-24c-8.83105 0 -16 7.16895 -16 16v24c0 8.83105 7.16895 16 16 16h24z" />
    <glyph glyph-name="border-style" unicode="&#xf853;" 
d="M432 416c8.83105 0 16 -7.16895 16 -16v-16c0 -8.83105 -7.16895 -16 -16 -16h-384v-384c0 -8.83105 -7.16895 -16 -16 -16h-16c-8.83105 0 -16 7.16895 -16 16v400c0 17.6611 14.3389 32 32 32h400zM236 24c8.83105 0 16 -7.16895 16 -16v-24
c0 -8.83105 -7.16895 -16 -16 -16h-24c-8.83105 0 -16 7.16895 -16 16v24c0 8.83105 7.16895 16 16 16h24zM136 24c8.83105 0 16 -7.16895 16 -16v-24c0 -8.83105 -7.16895 -16 -16 -16h-24c-8.83105 0 -16 7.16895 -16 16v24c0 8.83105 7.16895 16 16 16h24zM336 24
c8.83105 0 16 -7.16895 16 -16v-24c0 -8.83105 -7.16895 -16 -16 -16h-24c-8.83105 0 -16 7.16895 -16 16v24c0 8.83105 7.16895 16 16 16h24zM432 220c8.83105 0 16 -7.16895 16 -16v-24c0 -8.83105 -7.16895 -16 -16 -16h-24c-8.83105 0 -16 7.16895 -16 16v24
c0 8.83105 7.16895 16 16 16h24zM432 120c8.83105 0 16 -7.16895 16 -16v-24c0 -8.83105 -7.16895 -16 -16 -16h-24c-8.83105 0 -16 7.16895 -16 16v24c0 8.83105 7.16895 16 16 16h24zM432 320c8.83105 0 16 -7.16895 16 -16v-24c0 -8.83105 -7.16895 -16 -16 -16h-24
c-8.83105 0 -16 7.16895 -16 16v24c0 8.83105 7.16895 16 16 16h24zM432 24c8.83105 0 16 -7.16895 16 -16v-24c0 -8.83105 -7.16895 -16 -16 -16h-24c-8.83105 0 -16 7.16895 -16 16v24c0 8.83105 7.16895 16 16 16h24z" />
    <glyph glyph-name="border-style-alt" unicode="&#xf854;" 
d="M432 416c8.83105 0 16 -7.16895 16 -16v-400c0 -17.6611 -14.3389 -32 -32 -32h-400c-8.83105 0 -16 7.16895 -16 16v16c0 8.83105 7.16895 16 16 16h384v384c0 8.83105 7.16895 16 16 16h16zM312 360c-8.83105 0 -16 7.16895 -16 16v24c0 8.83105 7.16895 16 16 16h24
c8.83105 0 16 -7.16895 16 -16v-24c0 -8.83105 -7.16895 -16 -16 -16h-24zM212 360c-8.83105 0 -16 7.16895 -16 16v24c0 8.83105 7.16895 16 16 16h24c8.83105 0 16 -7.16895 16 -16v-24c0 -8.83105 -7.16895 -16 -16 -16h-24zM16 64c-8.83105 0 -16 7.16895 -16 16v24
c0 8.83105 7.16895 16 16 16h24c8.83105 0 16 -7.16895 16 -16v-24c0 -8.83105 -7.16895 -16 -16 -16h-24zM16 164c-8.83105 0 -16 7.16895 -16 16v24c0 8.83105 7.16895 16 16 16h24c8.83105 0 16 -7.16895 16 -16v-24c0 -8.83105 -7.16895 -16 -16 -16h-24zM112 360
c-8.83105 0 -16 7.16895 -16 16v24c0 8.83105 7.16895 16 16 16h24c8.83105 0 16 -7.16895 16 -16v-24c0 -8.83105 -7.16895 -16 -16 -16h-24zM16 264c-8.83105 0 -16 7.16895 -16 16v24c0 8.83105 7.16895 16 16 16h24c8.83105 0 16 -7.16895 16 -16v-24
c0 -8.83105 -7.16895 -16 -16 -16h-24zM16 360c-8.83105 0 -16 7.16895 -16 16v24c0 8.83105 7.16895 16 16 16h24c8.83105 0 16 -7.16895 16 -16v-24c0 -8.83105 -7.16895 -16 -16 -16h-24z" />
    <glyph glyph-name="border-top" unicode="&#xf855;" 
d="M432 416c8.83105 0 16 -7.16895 16 -16v-16c0 -8.83105 -7.16895 -16 -16 -16h-416c-8.83105 0 -16 7.16895 -16 16v16c0 8.83105 7.16895 16 16 16h416zM136 24c8.83105 0 16 -7.16895 16 -16v-24c0 -8.83105 -7.16895 -16 -16 -16h-24c-8.83105 0 -16 7.16895 -16 16
v24c0 8.83105 7.16895 16 16 16h24zM136 220c8.83105 0 16 -7.16895 16 -16v-24c0 -8.83105 -7.16895 -16 -16 -16h-24c-8.83105 0 -16 7.16895 -16 16v24c0 8.83105 7.16895 16 16 16h24zM236 24c8.83105 0 16 -7.16895 16 -16v-24c0 -8.83105 -7.16895 -16 -16 -16h-24
c-8.83105 0 -16 7.16895 -16 16v24c0 8.83105 7.16895 16 16 16h24zM40 220c8.83105 0 16 -7.16895 16 -16v-24c0 -8.83105 -7.16895 -16 -16 -16h-24c-8.83105 0 -16 7.16895 -16 16v24c0 8.83105 7.16895 16 16 16h24zM40 24c8.83105 0 16 -7.16895 16 -16v-24
c0 -8.83105 -7.16895 -16 -16 -16h-24c-8.83105 0 -16 7.16895 -16 16v24c0 8.83105 7.16895 16 16 16h24zM40 120c8.83105 0 16 -7.16895 16 -16v-24c0 -8.83105 -7.16895 -16 -16 -16h-24c-8.83105 0 -16 7.16895 -16 16v24c0 8.83105 7.16895 16 16 16h24zM40 320
c8.83105 0 16 -7.16895 16 -16v-24c0 -8.83105 -7.16895 -16 -16 -16h-24c-8.83105 0 -16 7.16895 -16 16v24c0 8.83105 7.16895 16 16 16h24zM236 120c8.83105 0 16 -7.16895 16 -16v-24c0 -8.83105 -7.16895 -16 -16 -16h-24c-8.83105 0 -16 7.16895 -16 16v24
c0 8.83105 7.16895 16 16 16h24zM336 24c8.83105 0 16 -7.16895 16 -16v-24c0 -8.83105 -7.16895 -16 -16 -16h-24c-8.83105 0 -16 7.16895 -16 16v24c0 8.83105 7.16895 16 16 16h24zM432 220c8.83105 0 16 -7.16895 16 -16v-24c0 -8.83105 -7.16895 -16 -16 -16h-24
c-8.83105 0 -16 7.16895 -16 16v24c0 8.83105 7.16895 16 16 16h24zM432 320c8.83105 0 16 -7.16895 16 -16v-24c0 -8.83105 -7.16895 -16 -16 -16h-24c-8.83105 0 -16 7.16895 -16 16v24c0 8.83105 7.16895 16 16 16h24zM236 220c8.83105 0 16 -7.16895 16 -16v-24
c0 -8.83105 -7.16895 -16 -16 -16h-24c-8.83105 0 -16 7.16895 -16 16v24c0 8.83105 7.16895 16 16 16h24zM432 120c8.83105 0 16 -7.16895 16 -16v-24c0 -8.83105 -7.16895 -16 -16 -16h-24c-8.83105 0 -16 7.16895 -16 16v24c0 8.83105 7.16895 16 16 16h24zM236 320
c8.83105 0 16 -7.16895 16 -16v-24c0 -8.83105 -7.16895 -16 -16 -16h-24c-8.83105 0 -16 7.16895 -16 16v24c0 8.83105 7.16895 16 16 16h24zM432 24c8.83105 0 16 -7.16895 16 -16v-24c0 -8.83105 -7.16895 -16 -16 -16h-24c-8.83105 0 -16 7.16895 -16 16v24
c0 8.83105 7.16895 16 16 16h24zM336 220c8.83105 0 16 -7.16895 16 -16v-24c0 -8.83105 -7.16895 -16 -16 -16h-24c-8.83105 0 -16 7.16895 -16 16v24c0 8.83105 7.16895 16 16 16h24z" />
    <glyph glyph-name="burger-soda" unicode="&#xf858;" horiz-adv-x="640" 
d="M110.47 -16h127.83c5.58887 -17.5254 15.2041 -33.2578 27.8105 -46.0596c-3.15625 -1.16406 -6.57422 -1.84961 -10.1104 -1.94043h-160c-0.0488281 0 -0.0957031 0.0273438 -0.144531 0.0273438c-16.8564 0 -30.6748 13.1113 -31.8057 29.6826l-30.5693 306.29
h-17.4805c-8.83105 0 -16 7.16895 -16 16v16c0 8.83105 7.16895 16 16 16h141.26l24.4307 97.7002c4.3457 17.3867 20.084 30.2998 38.8096 30.2998h51.5c8.83105 0 16 -7.16895 16 -16v-16c0 -8.83105 -7.16895 -16 -16 -16h-45.2598l-20 -80h129.26
c8.83105 0 16 -7.16895 16 -16v-16c0 -8.83105 -7.16895 -16 -16 -16h-254.28zM528 136c-8.83105 0 -16 7.16895 -16 16s7.16895 16 16 16s16 -7.16895 16 -16s-7.16895 -16 -16 -16zM448 152c-8.83105 0 -16 7.16895 -16 16s7.16895 16 16 16s16 -7.16895 16 -16
s-7.16895 -16 -16 -16zM640 72c-0.0351562 -11.4121 -4.88965 -21.6963 -12.6504 -28.9102c2.97754 -7.0918 4.65039 -14.9219 4.65039 -23.0898c-0.0498047 -46.3379 -37.6621 -83.9502 -84 -84h-200c-46.3379 0.0498047 -83.9502 37.6621 -84 84
c0 8.16797 1.67285 15.998 4.65039 23.0898c-7.76074 7.21387 -12.6152 17.498 -12.6504 28.9102c0 12.9199 6.49023 23.8799 16 31.1904c-5.06738 9.83887 -7.93262 21.1357 -7.93262 32.957c0 15.3945 4.85352 29.665 13.1123 41.3623
c33.4102 47.6201 100.46 78.4307 170.82 78.4902c70.4102 -0.0595703 137.46 -30.8701 170.89 -78.4902c8.23145 -11.6885 13.0645 -26.0781 13.0645 -41.4473c0 -11.8428 -2.87109 -23.0195 -7.9541 -32.8721c9.46973 -7.31055 16 -18.2705 16 -31.1904zM316.44 149.95
c-2.7666 -3.91895 -4.40723 -8.72266 -4.40723 -13.8799c0 -13.2852 10.7861 -24.0703 24.0703 -24.0703h0.0664062h223.67c0.0195312 0 0.0253906 0.0224609 0.0449219 0.0224609c13.2842 0 24.0703 10.7852 24.0703 24.0703c0 5.15332 -1.62305 9.92969 -4.38477 13.8477
c-22.7705 32.46 -72.9004 58.1094 -131.57 58.0596s-108.79 -25.5996 -131.56 -58.0498zM548 -16c19.8691 0 36 16.1309 36 36c0 6.62305 -5.37695 12 -12 12h-248c-6.62305 0 -12 -5.37695 -12 -12c0 -19.8691 16.1309 -36 36 -36h200zM368 136
c-8.83105 0 -16 7.16895 -16 16s7.16895 16 16 16s16 -7.16895 16 -16s-7.16895 -16 -16 -16z" />
    <glyph glyph-name="car-building" unicode="&#xf859;" horiz-adv-x="640" 
d="M148 256c6.62305 0 12 -5.37695 12 -12v-40c0 -6.62305 -5.37695 -12 -12 -12h-40c-6.62305 0 -12 5.37695 -12 12v40c0 6.62305 5.37695 12 12 12h40zM148 160c6.62305 0 12 -5.37695 12 -12v-40c0 -6.62305 -5.37695 -12 -12 -12h-40c-6.62305 0 -12 5.37695 -12 12v40
c0 6.62305 5.37695 12 12 12h40zM148 352c6.62305 0 12 -5.37695 12 -12v-40c0 -6.62305 -5.37695 -12 -12 -12h-40c-6.62305 0 -12 5.37695 -12 12v40c0 6.62305 5.37695 12 12 12h40zM304 271.86v128.14h-256v-384c0 -8.83105 -7.16895 -16 -16 -16h-16
c-8.83105 0 -16 7.16895 -16 16v400c0 17.6611 14.3389 32 32 32h288c17.6611 0 32 -14.3389 32 -32v-118.33c-17.6777 -5.51172 -33.9854 -14.3721 -48 -25.8096zM204 352h40c6.62305 0 12 -5.37695 12 -12v-40c0 -6.62305 -5.37695 -12 -12 -12h-40
c-6.62305 0 -12 5.37695 -12 12v40c0 6.62305 5.37695 12 12 12zM528 104c13.2461 0 24 -10.7539 24 -24s-10.7539 -24 -24 -24s-24 10.7539 -24 24s10.7539 24 24 24zM586.77 171.4c30.9951 -11.0557 53.1865 -40.6396 53.2305 -75.4004v-32
c-0.0771484 -26.0645 -12.6309 -49.166 -32.0703 -63.6504c0 -0.119141 0.0703125 -0.229492 0.0703125 -0.349609v-32c0 -17.6611 -14.3389 -32 -32 -32h-16c-17.6611 0 -32 14.3389 -32 32v16h-192v-16c0 -17.6611 -14.3389 -32 -32 -32h-16
c-17.6611 0 -32 14.3389 -32 32v32c0 0.120117 0.0703125 0.230469 0.0703125 0.349609c-19.4395 14.4844 -31.9932 37.5859 -32.0703 63.6504v32c0.0449219 34.7686 22.252 64.3564 53.2598 75.4004l14 32.7197c17.0801 39.9424 56.6914 67.8799 102.85 67.8799h0.0908203
h75.5996c0.0400391 0 0.0263672 0.0800781 0.0664062 0.0800781c46.1582 0 85.8242 -28.0176 102.903 -67.96zM592 64v32c0 17.6611 -14.3389 32 -32 32h-6.86035l-24.5195 57.21c-9.78223 22.8262 -32.4316 38.7881 -58.8203 38.79h-75.5996
c-26.3887 -0.00195312 -49.0381 -15.9639 -58.8203 -38.79l-24.5195 -57.21h-6.86035c-17.6611 0 -32 -14.3389 -32 -32v-32c0 -17.6611 14.3389 -32 32 -32h256c17.6611 0 32 14.3389 32 32zM256 204c0 -6.62305 -5.37695 -12 -12 -12h-40c-6.62305 0 -12 5.37695 -12 12
v40c0 6.62305 5.37695 12 12 12h40c6.62305 0 12 -5.37695 12 -12v-40zM336 104c13.2461 0 24 -10.7539 24 -24s-10.7539 -24 -24 -24s-24 10.7539 -24 24s10.7539 24 24 24zM499.32 172.35l19.4795 -44.3496h-173.6l19.5898 44.5996
c4.88965 11.415 16.2148 19.3984 29.4102 19.4004h75.5996c13.2861 -0.0166016 24.6758 -8.11133 29.5205 -19.6504z" />
    <glyph glyph-name="car-bus" unicode="&#xf85a;" horiz-adv-x="640" 
d="M336 103.52c13.2217 0 23.9619 -10.7168 24 -23.9297c0 -13.207 -10.7217 -23.9297 -23.9287 -23.9297s-23.9297 10.7227 -23.9297 23.9297c0 13.1836 10.6836 23.8916 23.8584 23.9297zM499.32 171.68l19.4795 -44.2197h-173.6l19.5898 44.4697
c4.9043 11.3848 16.2139 19.3398 29.3887 19.3398h0.0214844h75.5996c13.2744 -0.00585938 24.6582 -8.0752 29.5205 -19.5898zM528 103.52c13.2217 0 23.9619 -10.7168 24 -23.9297c0 -13.207 -10.7217 -23.9297 -23.9287 -23.9297s-23.9297 10.7227 -23.9297 23.9297
c0 13.1836 10.6836 23.8916 23.8584 23.9297zM586.77 170.73c30.9678 -10.9756 53.1611 -40.4883 53.2305 -75.1807v-31.9102c0 -25.9893 -12.7197 -48.8994 -32.0703 -63.4697c0 -0.129883 0.0703125 -0.229492 0.0703125 -0.349609v-31.9102
c-0.0498047 -17.6191 -14.3691 -31.9102 -32 -31.9102h-16c-17.6309 0 -31.9502 14.291 -32 31.9102v15.9502h-192v-15.9502c-0.0498047 -17.6191 -14.3691 -31.9102 -32 -31.9102h-16c-17.6309 0 -31.9502 14.291 -32 31.9102v31.9102
c0 0.120117 0.0703125 0.219727 0.0703125 0.349609c-19.3506 14.5703 -32.0703 37.4697 -32.0703 63.4697v31.9102c0.0947266 34.6768 22.2959 64.1709 53.2598 75.1299l14 32.6299c17.1299 39.8428 56.6914 67.6904 102.78 67.6904h0.160156h75.5996
c0.0712891 0 0.0849609 0.0820312 0.155273 0.0820312c46.0703 0 85.6738 -27.9062 102.814 -67.7217zM592 63.6396v31.9102c-0.0498047 17.6191 -14.3691 31.9102 -32 31.9102h-6.86035l-24.5195 57c-9.80859 22.7695 -32.4287 38.6797 -58.7773 38.6797h-0.0429688
h-75.5996c-0.0146484 0 0.00292969 0.046875 -0.0117188 0.046875c-26.3486 0 -49 -15.957 -58.8086 -38.7266l-24.5195 -57h-6.86035c-17.6309 0 -31.9502 -14.291 -32 -31.9102v-31.9102c0.0498047 -17.6191 14.3691 -31.9092 32 -31.9092h256
c17.6309 0 31.9502 14.29 32 31.9092zM176 350.82v-143.641h-80c-8.83105 0 -16 7.16992 -16 16v111.69c0.0273438 8.80664 7.18652 15.9502 16 15.9502h80zM48 119.48c0.0107422 -4.40625 3.5918 -7.98047 8 -7.98047h137.18
c-0.770508 -5.24316 -1.1709 -10.4971 -1.17969 -15.9502v-31.9102h-48v-31.9092c-0.0498047 -17.6201 -14.3691 -31.9102 -32 -31.9102h-16c-17.6309 0 -31.9502 14.29 -32 31.9102v31.9092h-8c-30.8525 0 -55.9121 25.0078 -56 55.8408v229.369
c0 73.1504 103.43 99.1504 192 99.1504s192 -26 192 -99.1504v-46.6396c-16.8799 -1.12695 -33.2021 -5.23828 -48 -11.6904v58.3301c0 28.7207 -63.7695 51.29 -144 51.29s-144 -22.5693 -144 -51.29v-229.369zM80 159.37c0.0380859 13.2129 10.7783 23.9297 24 23.9297
c13.2461 0 24 -10.7549 24 -24.001s-10.7539 -24 -24 -24s-24 10.7539 -24 24v0.0712891zM261.84 215.93l-3.72949 -8.69922h-50.1104v143.649h80c8.81348 0 15.9727 -7.14258 16 -15.9502v-64c-18.2715 -14.5459 -32.7393 -33.3008 -42.1602 -55z" />
    <glyph glyph-name="cars" unicode="&#xf85b;" horiz-adv-x="640" 
d="M499.32 172.35l19.4795 -44.3496h-173.6l19.5898 44.5996c4.88965 11.415 16.2148 19.3984 29.4102 19.4004h75.5996c13.2861 -0.0166016 24.6758 -8.11133 29.5205 -19.6504zM336 104c13.2461 0 24 -10.7539 24 -24s-10.7539 -24 -24 -24s-24 10.7539 -24 24
s10.7539 24 24 24zM586.77 171.4c30.9951 -11.0557 53.1865 -40.6396 53.2305 -75.4004v-32c-0.0771484 -26.0645 -12.6309 -49.166 -32.0703 -63.6504c0 -0.119141 0.0703125 -0.229492 0.0703125 -0.349609v-32c0 -17.6611 -14.3389 -32 -32 -32h-16
c-17.6611 0 -32 14.3389 -32 32v16h-192v-16c0 -17.6611 -14.3389 -32 -32 -32h-16c-17.6611 0 -32 14.3389 -32 32v32c0 0.120117 0.0703125 0.230469 0.0703125 0.349609c-19.4395 14.4844 -31.9932 37.5859 -32.0703 63.6504v32
c0.0488281 34.7676 22.2529 64.3545 53.2598 75.4004l14 32.7197c17.0801 39.9424 56.6914 67.8799 102.85 67.8799h0.0908203h75.5996c0.0400391 0 0.0263672 0.0800781 0.0664062 0.0800781c46.1582 0 85.8242 -28.0176 102.903 -67.96zM592 64v32
c0 17.6611 -14.3389 32 -32 32h-6.86035l-24.5195 57.21c-9.78223 22.8262 -32.4316 38.7881 -58.8203 38.79h-75.5996c-26.3887 -0.00195312 -49.0381 -15.9639 -58.8203 -38.79l-24.5195 -57.21h-6.86035c-17.6611 0 -32 -14.3389 -32 -32v-32
c0 -17.6611 14.3389 -32 32 -32h256c17.6611 0 32 14.3389 32 32zM528 104c13.2461 0 24 -10.7539 24 -24s-10.7539 -24 -24 -24s-24 10.7539 -24 24s10.7539 24 24 24zM275.32 348.35l19.4795 -44.3496h-173.6l19.5898 44.5996
c4.88965 11.415 16.2148 19.3984 29.4102 19.4004h75.5996c13.2861 -0.0166016 24.6758 -8.11133 29.5205 -19.6504zM252.79 195.6c-16.2402 -8.46777 -29.9727 -20.625 -40.3301 -35.5996h-100.46v-16c0 -17.6611 -14.3389 -32 -32 -32h-16c-17.6611 0 -32 14.3389 -32 32
v32c0 0.120117 0.0703125 0.230469 0.0703125 0.349609c-19.4395 14.4844 -31.9932 37.5859 -32.0703 63.6504v32c0.0488281 34.7676 22.2529 64.3545 53.2598 75.4004l14 32.7197c17.0801 39.9424 56.6914 67.8799 102.85 67.8799h0.0908203h75.5996
c0.0400391 0 0.0263672 0.0800781 0.0664062 0.0800781c46.1582 0 85.8242 -28.0176 102.903 -67.96l14 -32.7197c20.7812 -7.50879 37.5225 -23.2656 46.3105 -43.4004h-14.8799c-14.1318 -0.0185547 -27.7783 -2.10547 -40.6807 -5.92969
c-5.10938 3.43945 -10.8994 5.92969 -17.5195 5.92969h-6.86035l-24.5195 57.21c-9.78223 22.8262 -32.4316 38.7881 -58.8203 38.79h-75.5996c-26.3887 -0.00195312 -49.0381 -15.9639 -58.8203 -38.79l-24.5195 -57.21h-6.86035c-17.6611 0 -32 -14.3389 -32 -32v-32
c0 -17.6611 14.3389 -32 32 -32h178.11zM88 256c0 13.2461 10.7539 24 24 24s24 -10.7539 24 -24s-10.7539 -24 -24 -24s-24 10.7539 -24 24z" />
    <glyph glyph-name="coin" unicode="&#xf85c;" horiz-adv-x="512" 
d="M256 384c141.33 0 256 -64.4404 256 -144v-112c0 -70.7197 -114.67 -128 -256 -128s-256 57.2803 -256 128v112c0 79.5596 114.67 144 256 144zM88 84.6299v46.8896c-14.2373 6.875 -27.6123 15.1689 -40 24.75v-28.2695c0 -13.2002 14.4199 -29.1602 40 -43.3701z
M184 53.75v48.1299c-21.8711 3.54395 -43.5723 9.11035 -64 16.2803v-48.0898c20.373 -7.31055 42.0791 -12.8984 64 -16.3203zM296 49.75v48.1797c-13.0703 -1.16016 -26.3604 -1.92969 -40 -1.92969s-26.9297 0.769531 -40 1.92969v-48.1797
c12.8096 -1.09961 26.0996 -1.78027 40 -1.78027s27.1904 0.680664 40 1.78027zM392 70.04v48.1201c-20.4277 -7.16992 -42.1289 -12.7363 -64 -16.2803v-48.1602c21.9209 3.42285 43.627 9.01074 64 16.3203zM464 128v28.2695
c-12.3877 -9.58105 -25.7627 -17.875 -40 -24.75v-46.8896c25.5801 14.21 40 30.1699 40 43.3701zM256 144c119.05 0 208 50.6797 208 96s-89 96 -208 96s-208 -50.6797 -208 -96s89 -96 208 -96z" />
    </font>
</defs>
</svg>
